<?xml version="1.0" standalone="no"?>
<!DOCTYPE svg PUBLIC "-//W3C//DTD SVG 1.1//EN" "http://www.w3.org/Graphics/SVG/1.1/DTD/svg11.dtd" >
<svg xmlns="http://www.w3.org/2000/svg" xmlns:xlink="http://www.w3.org/1999/xlink" version="1.1">
<metadata>
Created by FontForge 20201107 at Wed Jun 10 16:10:43 2015
 By 
Copyright (c) 2015 Apple Inc. All rights reserved.
</metadata>
<defs>
<font id="PingFangSCLight" horiz-adv-x="1000" vert-adv-y="1000" >
  <font-face 
    font-family="PingFang SC Light"
    font-weight="400"
    font-stretch="normal"
    units-per-em="1000"
    panose-1="2 11 2 0 0 0 0 0 0 0"
    ascent="860"
    descent="-140"
    x-height="517"
    cap-height="714"
    bbox="-72 -230 1090 952"
    underline-thickness="33"
    underline-position="-115"
    unicode-range="U+000D-2FA07"
  />
<missing-glyph 
 />
    <glyph glyph-name="uniFB00" unicode="ff" horiz-adv-x="677" 
d="M362 714v-36h-84q-47 0 -67 -23q-20 -21 -20 -75v-63h272v63q0 65 28 97q30 37 95 37h86v-36h-84q-47 0 -67 -23q-20 -21 -20 -75v-63h164v-35h-164v-482h-38v482h-272v-482h-38v482h-148v35h148v63q0 66 29 98q30 36 94 36h86z" />
    <glyph glyph-name="uniFB01" unicode="fi" horiz-adv-x="592" 
d="M362 714v-36h-84q-47 0 -67 -23q-20 -21 -20 -75v-63h315v-517h-39v482h-276v-482h-38v482h-148v35h148v63q0 66 29 98q30 36 94 36h86z" />
    <glyph glyph-name="uniFB02" unicode="fl" horiz-adv-x="592" 
d="M506 714v-714h-39v678h-189q-47 0 -67 -23q-20 -21 -20 -75v-63h164v-35h-164v-482h-38v482h-148v35h148v63q0 66 29 98q30 36 94 36h230z" />
    <glyph glyph-name="uniFB03" unicode="ffi" horiz-adv-x="902" 
d="M362 714v-36h-84q-47 0 -67 -23q-20 -21 -20 -75v-63h272v63q0 65 28 97q30 37 95 37h86v-36h-84q-47 0 -67 -23q-20 -21 -20 -75v-63h315v-517h-39v482h-276v-482h-38v482h-272v-482h-38v482h-148v35h148v63q0 66 29 98q30 36 94 36h86z" />
    <glyph glyph-name="uniFB04" unicode="ffl" horiz-adv-x="902" 
d="M362 714v-36h-84q-47 0 -67 -23q-20 -21 -20 -75v-63h272v63q0 65 28 97q30 37 95 37h230v-714h-39v678h-189q-47 0 -67 -23q-20 -21 -20 -75v-63h164v-35h-164v-482h-38v482h-272v-482h-38v482h-148v35h148v63q0 66 29 98q30 36 94 36h86z" />
    <glyph glyph-name=".notdef" 
 />
    <glyph glyph-name="uni0000" horiz-adv-x="0" 
 />
    <glyph glyph-name="uni000D" unicode="&#xd;" horiz-adv-x="333" 
 />
    <glyph glyph-name="space" unicode=" " horiz-adv-x="333" 
 />
    <glyph glyph-name="exclam" unicode="!" horiz-adv-x="333" 
d="M146 714h42l-4 -537h-34zM195 68q12 -10 12 -28q0 -16 -12 -28t-28 -12q-17 0 -28 12q-12 12 -12 28q0 18 12 28q11 12 28 12q16 0 28 -12z" />
    <glyph glyph-name="quotedbl" unicode="&#x22;" horiz-adv-x="364" 
d="M304 662q0 -106 -85 -155l-16 26q65 45 68 117l-13 -1q-20 0 -30 10q-11 10 -11 28q0 21 10 31t30 10q47 0 47 -66zM161 662q0 -107 -84 -155l-17 26q65 45 68 117l-13 -1q-20 0 -30 10q-11 10 -11 28q0 21 10 31t30 10q47 0 47 -66z" />
    <glyph glyph-name="numbersign" unicode="#" horiz-adv-x="600" 
d="M72 529h129l30 185h35l-29 -185h181l30 185h35l-30 -185h118l-6 -33h-117l-44 -281h130l-6 -33h-129l-29 -182h-36l29 182h-181l-29 -182h-36l29 182h-117l6 33h116l45 281h-130zM187 215h181l45 281h-181z" />
    <glyph glyph-name="dollar" unicode="$" horiz-adv-x="600" 
d="M283 809h31v-81q84 -4 140 -55q59 -53 74 -153h-39q-13 83 -64 128q-46 40 -111 43v-312l116 -41q109 -51 109 -149q0 -106 -66 -157q-58 -43 -159 -46v-87h-31v87q-98 6 -152 67q-54 60 -68 175h40q12 -103 57 -152q44 -48 123 -54v330l-96 34q-109 51 -109 149
q0 95 64 146q53 44 141 47v81zM314 22q90 3 139 44q47 44 47 122q0 81 -109 126q-43 17 -77 27v-319zM283 692q-74 -3 -115 -37q-51 -42 -51 -120q0 -80 109 -125q19 -6 57 -20v302z" />
    <glyph glyph-name="percent" unicode="%" horiz-adv-x="938" 
d="M832 333q36 -51 36 -137q0 -84 -36 -137q-39 -59 -114 -59q-76 0 -115 59q-35 50 -35 137t35 137q39 58 115 58q75 0 114 -58zM650 728h37l-400 -742h-36zM334 656q36 -51 36 -137q0 -84 -36 -137q-39 -59 -115 -59q-75 0 -114 59q-35 50 -35 137t35 137q39 58 114 58
q76 0 115 -58zM633 314q-28 -41 -28 -118q0 -75 28 -118q28 -46 85 -46q55 0 85 47q28 44 28 117q0 74 -28 118q-30 45 -85 45q-58 0 -85 -45zM134 637q-27 -42 -27 -118q0 -74 27 -118q29 -46 85 -46t86 47q28 44 28 117q0 75 -29 118q-30 45 -85 45q-56 0 -85 -45z" />
    <glyph glyph-name="ampersand" unicode="&#x26;" horiz-adv-x="696" 
d="M206 664q-34 -28 -34 -79q0 -36 37 -86q13 -18 62 -70l51 28q98 57 98 131q0 46 -30 73q-36 33 -94 33q-55 0 -90 -30zM238 411q-49 51 -70 81q-35 50 -35 93q0 68 50 106q44 37 114 37q74 0 118 -40q43 -40 43 -99q0 -51 -37 -96q-36 -36 -87 -69q-21 -9 -39 -21
l224 -234q55 98 64 249h38q-9 -169 -74 -278l134 -140h-53l-103 108q-90 -122 -241 -122q-102 0 -171 55q-69 57 -69 148q0 102 98 169zM498 136l-235 249q-41 -22 -93 -53q-87 -58 -87 -143q0 -72 57 -120q58 -46 143 -46q134 0 215 113z" />
    <glyph glyph-name="quotesingle" unicode="'" horiz-adv-x="221" 
d="M161 662q0 -107 -84 -155l-17 26q65 45 68 117l-13 -1q-20 0 -30 10q-11 10 -11 28q0 21 10 31t30 10q47 0 47 -66z" />
    <glyph glyph-name="parenleft" unicode="(" horiz-adv-x="333" 
d="M254 827q-58 -95 -94 -208q-43 -130 -43 -259q0 -127 43 -259q37 -115 94 -208h-39q-57 94 -94 207q-42 134 -42 260q0 127 42 259q36 115 94 208h39z" />
    <glyph glyph-name="parenright" unicode=")" horiz-adv-x="333" 
d="M118 827q59 -99 94 -208q42 -132 42 -259q0 -126 -42 -260q-35 -107 -94 -207h-39q58 99 94 208q43 137 43 259q0 124 -43 259q-34 108 -94 208h39z" />
    <glyph glyph-name="asterisk" unicode="*" horiz-adv-x="494" 
d="M229 714h36l-2 -213l194 69l12 -34l-197 -65l130 -165l-28 -23l-127 167l-126 -167l-29 23l130 165l-197 65l12 34l194 -69z" />
    <glyph glyph-name="plus" unicode="+" horiz-adv-x="605" 
d="M285 511h36v-234h234v-36h-234v-235h-36v235h-235v36h235v234z" />
    <glyph glyph-name="comma" unicode="," horiz-adv-x="251" 
d="M172 14q0 -108 -85 -155l-17 26q65 45 68 116l-13 -1q-18 0 -30 10q-11 10 -11 29q0 20 10 30q11 10 30 10q48 0 48 -65z" />
    <glyph glyph-name="hyphen" unicode="-" horiz-adv-x="605" 
d="M50 277h505v-36h-505v36z" />
    <glyph glyph-name="period" unicode="." horiz-adv-x="251" 
d="M154 68q11 -11 11 -28q0 -16 -12 -28t-28 -12q-17 0 -28 12q-12 12 -12 28q0 18 12 28q11 12 28 12t29 -12z" />
    <glyph glyph-name="slash" unicode="/" horiz-adv-x="500" 
d="M413 820h37l-363 -920h-37z" />
    <glyph glyph-name="zero" unicode="0" horiz-adv-x="600" 
d="M491 605q46 -95 46 -248q0 -151 -46 -248q-60 -123 -191 -123t-191 123q-46 92 -46 248t46 248q60 123 191 123t191 -123zM140 581q-38 -80 -38 -224q0 -142 38 -224q50 -111 160 -111q109 0 160 111q39 84 39 224t-39 224q-51 111 -160 111q-110 0 -160 -111z" />
    <glyph glyph-name="one" unicode="1" horiz-adv-x="600" 
d="M339 714v-714h-39v664q-72 -83 -175 -112v41q49 14 98 46q45 30 81 75h35z" />
    <glyph glyph-name="two" unicode="2" horiz-adv-x="600" 
d="M463 674q61 -55 61 -145q0 -94 -71 -168q-32 -34 -148 -114q-169 -115 -184 -210h404v-37h-450q0 85 71 162q45 51 144 120q104 75 130 101q65 68 65 146q0 75 -50 119q-47 44 -127 44q-84 0 -132 -54q-54 -57 -54 -163h-38q0 121 64 188q59 65 160 65q94 0 155 -54z" />
    <glyph glyph-name="three" unicode="3" horiz-adv-x="600" 
d="M462 676q59 -53 59 -137q0 -127 -115 -166q61 -20 95 -64q35 -46 35 -108q0 -95 -66 -155t-169 -60q-88 0 -150 47q-78 60 -87 180h39q6 -101 72 -152q54 -40 126 -40q88 0 142 51t54 128q0 70 -49 113q-47 43 -128 43h-68v34h60q83 0 126 39q44 38 44 108q0 68 -46 111
q-47 44 -129 44t-129 -47q-48 -45 -59 -128h-38q11 98 71 155q57 56 155 56q96 0 155 -52z" />
    <glyph glyph-name="four" unicode="4" horiz-adv-x="600" 
d="M404 714h40v-507h128v-35h-128v-172h-38v172h-377v39zM403 658l-335 -451h338v451h-3z" />
    <glyph glyph-name="five" unicode="5" horiz-adv-x="600" 
d="M120 714h392v-37h-358l-27 -290h3q31 40 80 61q43 20 96 20q103 0 165 -62q65 -65 65 -180q0 -103 -68 -173q-69 -67 -172 -67q-89 0 -153 50q-71 54 -79 150h40q6 -78 64 -124q53 -41 128 -41q87 0 145 58q57 60 57 147q0 99 -56 155q-53 52 -141 52q-57 0 -105 -27
q-49 -28 -73 -77h-38z" />
    <glyph glyph-name="six" unicode="6" horiz-adv-x="600" 
d="M526 542h-39q-27 150 -177 150q-99 0 -154 -100q-54 -93 -54 -242q0 -20 1 -46h3q23 71 79 112q56 43 129 43q101 0 162 -65q61 -64 61 -166q0 -103 -62 -173q-64 -69 -165 -69q-128 0 -192 100q-54 90 -54 254q0 165 61 272q65 116 186 116q184 0 215 -186zM175 367
q-58 -57 -58 -139q0 -83 49 -142q54 -65 143 -65q84 0 137 59t53 148q0 87 -52 142q-52 54 -137 54q-78 0 -135 -57z" />
    <glyph glyph-name="seven" unicode="7" horiz-adv-x="600" 
d="M74 714h452v-34l-278 -680h-43l279 677h-410v37z" />
    <glyph glyph-name="eight" unicode="8" horiz-adv-x="600" 
d="M466 673q54 -48 54 -126q0 -58 -31 -101q-32 -44 -92 -62v-4q65 -12 106 -64q43 -54 43 -124q0 -89 -61 -147q-67 -59 -185 -59q-120 0 -185 59q-61 57 -61 147q0 72 43 124q41 52 107 64v4q-61 18 -93 62q-31 41 -31 101q0 78 54 126q58 55 166 55q107 0 166 -55z
M160 647q-42 -39 -42 -101q0 -63 41 -101q48 -46 141 -46q92 0 141 46q41 39 41 101t-42 101q-47 46 -140 46t-140 -46zM144 313q-51 -46 -51 -121t49 -121q54 -51 158 -51t159 51q48 47 48 121q0 75 -51 121q-57 51 -156 51q-100 0 -156 -51z" />
    <glyph glyph-name="nine" unicode="9" horiz-adv-x="600" 
d="M482 629q55 -90 55 -255q0 -162 -61 -272q-68 -116 -186 -116q-185 0 -215 186h39q27 -150 177 -150q96 0 154 100q54 95 54 242l-1 46h-2q-24 -69 -79 -112q-60 -43 -130 -43q-102 0 -162 65q-61 64 -61 166q0 104 63 173t164 69q128 0 191 -99zM155 634
q-53 -56 -53 -148q0 -89 52 -142q51 -54 137 -54q78 0 136 57q57 59 57 139q0 82 -49 142q-53 65 -143 65q-87 0 -137 -59z" />
    <glyph glyph-name="colon" unicode=":" horiz-adv-x="251" 
d="M154 434q11 -11 11 -28q0 -16 -12 -28t-28 -12q-17 0 -28 12q-12 12 -12 28q0 18 12 28q11 12 28 12t29 -12zM154 68q11 -11 11 -28q0 -16 -12 -28t-28 -12q-17 0 -28 12q-12 12 -12 28q0 18 12 28q11 12 28 12t29 -12z" />
    <glyph glyph-name="semicolon" unicode=";" horiz-adv-x="251" 
d="M154 434q11 -11 11 -28q0 -16 -12 -28t-28 -12q-17 0 -28 12q-12 12 -12 28q0 18 12 28q11 12 28 12t29 -12zM173 14q0 -108 -85 -155l-17 26q65 45 68 116l-13 -1q-18 0 -30 10q-11 10 -11 29q0 20 10 30q11 10 30 10q48 0 48 -65z" />
    <glyph glyph-name="less" unicode="&#x3c;" horiz-adv-x="605" 
d="M555 512v-39l-461 -214l461 -214v-39l-505 234v37z" />
    <glyph glyph-name="equal" unicode="=" horiz-adv-x="605" 
d="M50 378h505v-35h-505v35zM50 175h505v-35h-505v35z" />
    <glyph glyph-name="greater" unicode="&#x3e;" horiz-adv-x="605" 
d="M50 512l505 -235v-37l-505 -234v39l461 214l-461 214v39z" />
    <glyph glyph-name="question" unicode="?" horiz-adv-x="512" 
d="M410 674q52 -50 52 -135q0 -58 -37 -110q-16 -21 -77 -76q-39 -34 -54 -60q-24 -37 -24 -82v-35h-39v35q0 40 17 73q20 46 81 101q48 45 62 63q32 43 32 89q0 69 -41 112q-43 43 -121 43q-87 0 -131 -59q-39 -51 -42 -135h-38q3 98 52 159q56 71 160 71q94 0 148 -54z
M279 68q12 -10 12 -28q0 -16 -12 -28t-28 -12q-17 0 -28 12q-12 12 -12 28q0 18 12 28q11 12 28 12q16 0 28 -12z" />
    <glyph glyph-name="at" unicode="@" horiz-adv-x="848" 
d="M674 639q89 -87 89 -224q0 -108 -68 -193q-64 -76 -132 -76q-61 0 -64 71q-60 -74 -138 -74q-59 0 -94 40q-34 40 -34 101q0 122 71 202q66 78 155 78q80 0 102 -82l17 63h35l-75 -283q-8 -27 -8 -53q0 -30 35 -30q50 0 105 64q60 74 60 172q0 122 -80 200
q-84 81 -218 81q-145 0 -243 -98q-99 -97 -99 -243q0 -156 94 -247q93 -90 241 -90q113 0 205 46q77 40 124 107h39q-53 -83 -145 -132q-100 -53 -223 -53q-163 0 -266 100q-105 102 -105 270q0 157 110 263q109 109 269 109q152 0 241 -89zM331 463q-63 -72 -63 -180
q0 -48 26 -77q24 -30 68 -30q49 0 96 41q42 39 54 81l25 93q9 33 9 44q0 32 -19 60q-23 35 -65 35q-74 0 -131 -67z" />
    <glyph glyph-name="A" unicode="A" horiz-adv-x="629" 
d="M291 714h48l290 -714h-43l-90 226h-361l-91 -226h-44zM149 262h333l-165 410h-3z" />
    <glyph glyph-name="B" unicode="B" horiz-adv-x="662" 
d="M74 714h310q90 0 147 -45q59 -48 59 -134q0 -60 -38 -106q-37 -43 -92 -57q70 -11 114 -58q44 -49 44 -118q0 -100 -72 -151q-64 -45 -168 -45h-304v714zM113 678v-290h265q75 0 123 37q50 39 50 108q0 72 -49 110q-45 35 -125 35h-264zM113 352v-316h270q85 0 137 36
q59 42 59 123q0 78 -59 120q-53 37 -140 37h-267z" />
    <glyph glyph-name="C" unicode="C" horiz-adv-x="723" 
d="M570 668q87 -63 99 -167h-38q-12 87 -86 140q-71 50 -164 50q-139 0 -222 -99q-76 -94 -76 -239q0 -144 76 -235q78 -95 213 -95q96 0 169 53q79 61 100 166h38q-24 -123 -112 -193q-82 -63 -195 -63q-152 0 -243 109q-85 101 -85 258q0 158 86 262q91 113 251 113
q108 0 189 -60z" />
    <glyph glyph-name="D" unicode="D" horiz-adv-x="690" 
d="M74 714h251q166 0 246 -101q75 -90 75 -256q0 -160 -86 -257q-91 -100 -253 -100h-233v714zM113 678v-642h190q147 0 227 88q77 86 77 233q0 153 -64 234q-72 87 -221 87h-209z" />
    <glyph glyph-name="E" unicode="E" horiz-adv-x="630" 
d="M74 714h495v-36h-456v-289h433v-36h-433v-317h473v-36h-512v714z" />
    <glyph glyph-name="F" unicode="F" horiz-adv-x="570" 
d="M74 714h467v-36h-428v-291h407v-36h-407v-351h-39v714z" />
    <glyph glyph-name="G" unicode="G" horiz-adv-x="738" 
d="M581 659q73 -64 93 -179h-40q-18 97 -81 151q-69 60 -180 60q-136 0 -215 -100q-75 -93 -75 -238t77 -234q83 -97 233 -97q64 0 132 20q65 20 104 49v225h-266v36h305v-280q-48 -38 -120 -62q-78 -24 -158 -24q-166 0 -260 109q-86 99 -86 258q0 158 84 261
q90 114 245 114q129 0 208 -69z" />
    <glyph glyph-name="H" unicode="H" horiz-adv-x="702" 
d="M74 714h39v-325h475v325h39v-714h-39v353h-475v-353h-39v714z" />
    <glyph glyph-name="I" unicode="I" horiz-adv-x="212" 
d="M87 714h39v-714h-39v714z" />
    <glyph glyph-name="J" unicode="J" horiz-adv-x="493" 
d="M380 714h38v-489q0 -109 -43 -170q-51 -69 -163 -69q-90 0 -142 50q-55 54 -55 157v28h39v-27q0 -171 159 -171q88 0 129 52q38 50 38 151v488z" />
    <glyph glyph-name="K" unicode="K" horiz-adv-x="662" 
d="M562 714h55l-333 -304l378 -410h-54l-352 385l-143 -131v-254h-39v714h39v-413z" />
    <glyph glyph-name="L" unicode="L" horiz-adv-x="584" 
d="M74 714h39v-678h446v-36h-485v714z" />
    <glyph glyph-name="M" unicode="M" horiz-adv-x="856" 
d="M74 714h59l294 -668h3l293 668h59v-714h-39v661h-3l-291 -661h-42l-291 661h-3v-661h-39v714z" />
    <glyph glyph-name="N" unicode="N" horiz-adv-x="703" 
d="M74 714h50l464 -661h2v661h39v-714h-48l-466 665h-2v-665h-39v714z" />
    <glyph glyph-name="O" unicode="O" horiz-adv-x="757" 
d="M627 619q86 -103 86 -262t-86 -263q-93 -108 -248 -108q-157 0 -248 109q-87 102 -87 262t87 262q91 109 248 109t248 -109zM160 595q-77 -92 -77 -238q0 -148 77 -238q81 -96 219 -96q137 0 218 96q77 92 77 238q0 147 -77 238q-81 96 -218 96q-138 0 -219 -96z" />
    <glyph glyph-name="P" unicode="P" horiz-adv-x="626" 
d="M74 714h288q229 0 229 -199q0 -201 -230 -201h-248v-314h-39v714zM113 678v-328h247q97 0 146 43q46 41 46 122t-46 121q-48 42 -146 42h-247z" />
    <glyph glyph-name="Q" unicode="Q" horiz-adv-x="757" 
d="M627 619q86 -103 86 -262t-86 -263l-17 -18q47 -62 86 -120l-28 -24q-25 38 -85 119q-85 -65 -204 -65q-157 0 -248 109q-87 102 -87 262t87 262q91 109 248 109t248 -109zM160 595q-77 -92 -77 -238q0 -148 77 -238q81 -96 219 -96q107 0 180 59q-70 91 -138 164l26 25
q64 -70 139 -164l11 12q77 92 77 238q0 147 -77 238q-81 96 -218 96q-138 0 -219 -96z" />
    <glyph glyph-name="R" unicode="R" horiz-adv-x="652" 
d="M74 714h296q104 0 163 -50t59 -142q0 -66 -36 -114q-36 -47 -104 -62v-2q115 -24 125 -135l9 -104q6 -67 31 -105h-43q-20 35 -26 98l-9 103q-6 69 -54 99q-42 27 -116 27h-256v-327h-39v714zM113 678v-315h255q90 0 139 45q46 43 46 113q0 76 -43 116q-47 41 -143 41
h-254z" />
    <glyph glyph-name="S" unicode="S" horiz-adv-x="610" 
d="M481 669q69 -59 78 -166h-39q-11 91 -66 140q-56 49 -155 49q-96 0 -149 -35q-61 -37 -61 -111q0 -65 75 -104q32 -18 143 -48q133 -36 182 -66q87 -52 87 -149q0 -90 -77 -143q-74 -50 -189 -50q-120 0 -190 59q-77 65 -86 191h38q9 -107 75 -163q61 -50 162 -50t164 42
q64 43 64 113q0 79 -76 123q-41 25 -165 58q-128 37 -164 56q-82 46 -82 130q0 92 77 139q65 44 173 44q116 0 181 -59z" />
    <glyph glyph-name="T" unicode="T" horiz-adv-x="623" 
d="M19 714h585v-36h-272v-678h-39v678h-274v36z" />
    <glyph glyph-name="U" unicode="U" horiz-adv-x="689" 
d="M74 714h39v-436q0 -124 53 -186q58 -70 178 -70q121 0 179 70q53 64 53 186v436h39v-435q0 -139 -63 -213q-68 -80 -208 -80q-139 0 -207 79q-63 75 -63 214v435z" />
    <glyph glyph-name="V" unicode="V" horiz-adv-x="614" 
d="M5 714h45l256 -676h2l257 676h44l-275 -714h-53z" />
    <glyph glyph-name="W" unicode="W" horiz-adv-x="903" 
d="M5 714h44l185 -667h3l189 667h51l188 -667h4l185 667h44l-206 -714h-50l-189 665h-3l-190 -665h-50z" />
    <glyph glyph-name="X" unicode="X" horiz-adv-x="604" 
d="M28 714h49l225 -310l224 310h50l-250 -342l273 -372h-50l-247 342l-247 -342h-50l273 372z" />
    <glyph glyph-name="Y" unicode="Y" horiz-adv-x="626" 
d="M5 714h49l259 -380l260 380h48l-288 -417v-297h-39v297z" />
    <glyph glyph-name="Z" unicode="Z" horiz-adv-x="605" 
d="M55 714h501v-38l-482 -640h506v-36h-555v37l483 641h-453v36z" />
    <glyph glyph-name="bracketleft" unicode="[" horiz-adv-x="333" 
d="M56 827h221v-35h-184v-864h184v-35h-221v934z" />
    <glyph glyph-name="backslash" unicode="\" horiz-adv-x="500" 
d="M50 820h37l363 -920h-37z" />
    <glyph glyph-name="bracketright" unicode="]" horiz-adv-x="333" 
d="M56 827h221v-934h-221v35h184v864h-184v35z" />
    <glyph glyph-name="asciicircum" unicode="^" horiz-adv-x="485" 
d="M221 714h43l161 -344h-37l-145 306l-146 -306h-37z" />
    <glyph glyph-name="underscore" unicode="_" horiz-adv-x="500" 
d="M0 -105h500v-35h-500v35z" />
    <glyph glyph-name="grave" unicode="`" horiz-adv-x="333" 
d="M87 722h50l110 -146h-32z" />
    <glyph glyph-name="a" unicode="a" horiz-adv-x="543" 
d="M435 471q44 -50 44 -137v-334h-37v111q-32 -46 -87 -83q-66 -42 -143 -42q-74 0 -121 38q-47 40 -47 106q0 99 83 143q64 35 175 35l139 1v21q0 166 -165 166q-74 0 -119 -33q-50 -35 -59 -100h-38q12 84 71 127q54 41 146 41q106 0 158 -60zM441 275l-138 -1
q-220 -1 -220 -145q0 -49 37 -79q37 -29 99 -29q84 0 155 59q67 59 67 120v75z" />
    <glyph glyph-name="b" unicode="b" horiz-adv-x="566" 
d="M64 728h39v-336q54 139 191 139q108 0 171 -84q57 -75 57 -189q0 -113 -56 -189q-63 -83 -173 -83q-139 0 -192 135v-121h-37v728zM150 428q-48 -64 -48 -165v-13q0 -99 47 -161q50 -68 142 -68t145 70q47 65 47 167q0 104 -48 167q-52 71 -145 71q-90 0 -140 -68z" />
    <glyph glyph-name="c" unicode="c" horiz-adv-x="529" 
d="M423 486q57 -45 69 -136h-38q-10 72 -56 109q-47 37 -121 37q-89 0 -143 -70q-51 -66 -51 -173q0 -105 49 -167q50 -65 144 -65q154 0 181 161h38q-15 -95 -72 -146q-58 -50 -147 -50q-113 0 -175 78q-57 72 -57 189q0 119 60 195q62 83 173 83q89 0 146 -45z" />
    <glyph glyph-name="d" unicode="d" horiz-adv-x="566" 
d="M463 728h39v-728h-37v121q-54 -135 -193 -135q-110 0 -172 83q-56 74 -56 189q0 114 57 189q62 84 170 84q138 0 192 -138v335zM131 425q-48 -63 -48 -167t47 -167q52 -70 145 -70q91 0 142 68q47 64 47 161v13q0 101 -48 165q-52 68 -140 68q-95 0 -145 -71z" />
    <glyph glyph-name="e" unicode="e" horiz-adv-x="540" 
d="M449 449q51 -70 57 -203h-432q3 -104 55 -163q54 -62 141 -62q77 0 126 43q40 37 58 102h41q-18 -75 -68 -124q-62 -56 -157 -56q-108 0 -171 75q-65 75 -65 198q0 113 62 190q66 82 173 82q120 0 180 -82zM132 435q-52 -61 -58 -155h392q-16 216 -196 216
q-86 0 -138 -61z" />
    <glyph glyph-name="f" unicode="f" horiz-adv-x="367" 
d="M362 714v-36h-84q-47 0 -67 -23q-20 -21 -20 -75v-63h164v-35h-164v-482h-38v482h-148v35h148v63q0 66 29 98q30 36 94 36h86z" />
    <glyph glyph-name="g" unicode="g" horiz-adv-x="577" 
d="M474 397v120h39v-477q0 -252 -227 -252q-100 0 -154 45q-52 43 -64 123h38q12 -63 52 -96q46 -37 128 -37q188 0 188 214v108q-57 -133 -198 -133q-109 0 -174 79q-58 73 -58 180q0 109 58 180q64 80 174 80q141 0 198 -134zM133 428q-50 -60 -50 -157q0 -92 48 -155
q53 -69 148 -69q91 0 146 67q49 64 49 157q0 94 -49 157q-53 68 -146 68q-94 0 -146 -68z" />
    <glyph glyph-name="h" unicode="h" horiz-adv-x="532" 
d="M64 728h39v-315q27 55 74 87q44 31 102 31q86 0 137 -51q51 -52 51 -147v-333h-38v330q0 79 -43 124q-42 42 -114 42q-69 0 -118 -56q-51 -57 -51 -138v-302h-39v728z" />
    <glyph glyph-name="i" unicode="i" horiz-adv-x="234" 
d="M145 681q12 -10 12 -28q0 -16 -12 -28t-28 -12q-17 0 -28 12q-12 12 -12 28q0 18 12 28q11 12 28 12q16 0 28 -12zM98 517h38v-517h-38v517z" />
    <glyph glyph-name="j" unicode="j" horiz-adv-x="255" 
d="M167 681q11 -11 11 -28q0 -15 -11 -28q-12 -12 -29 -12t-29 12q-11 11 -11 28q0 18 11 28q12 12 29 12t29 -12zM119 517h38v-593q0 -122 -125 -122h-47v35h46q88 0 88 88v592z" />
    <glyph glyph-name="k" unicode="k" horiz-adv-x="499" 
d="M64 728h39v-494l317 283h56l-227 -201l250 -316h-51l-227 290l-118 -106v-184h-39v728z" />
    <glyph glyph-name="l" unicode="l" horiz-adv-x="212" 
d="M87 728h38v-728h-38v728z" />
    <glyph glyph-name="m" unicode="m" horiz-adv-x="820" 
d="M418 416q24 54 67 84q41 31 97 31q82 0 128 -50q46 -51 46 -143v-338h-38v335q0 79 -33 118q-36 43 -110 43q-63 0 -103 -47q-42 -45 -42 -115v-334h-39v335q0 161 -140 161q-63 0 -105 -51q-43 -49 -43 -123v-322h-39v517h39v-88q51 102 153 102q126 0 162 -115z" />
    <glyph glyph-name="n" unicode="n" horiz-adv-x="532" 
d="M468 317v-317h-39v316q0 180 -158 180q-70 0 -117 -51q-48 -49 -51 -132v-313h-39v517h39v-94q23 48 70 79q45 29 104 29q191 0 191 -214z" />
    <glyph glyph-name="o" unicode="o" horiz-adv-x="570" 
d="M465 446q61 -76 61 -188q0 -109 -61 -188q-67 -84 -180 -84q-114 0 -180 84q-61 77 -61 188q0 114 61 188q66 85 180 85q113 0 180 -85zM134 423q-51 -66 -51 -165q0 -98 51 -164q56 -73 151 -73q93 0 151 73q51 66 51 164q0 99 -51 165q-57 73 -151 73q-96 0 -151 -73z
" />
    <glyph glyph-name="p" unicode="p" horiz-adv-x="566" 
d="M465 447q57 -75 57 -189q0 -113 -56 -189q-62 -83 -172 -83q-137 0 -191 136v-320h-39v715h37v-121q59 135 192 135q109 0 172 -84zM149 425q-47 -62 -47 -164v-12q0 -99 48 -162q51 -66 140 -66q94 0 145 69q47 65 47 168q0 102 -47 166q-51 72 -144 72q-92 0 -142 -71z
" />
    <glyph glyph-name="q" unicode="q" horiz-adv-x="566" 
d="M465 396v121h37v-715h-39v320q-54 -136 -192 -136q-111 0 -171 83q-56 74 -56 189q0 114 57 189q62 84 171 84q133 0 193 -135zM131 424q-47 -62 -47 -166q0 -105 47 -168q51 -69 145 -69q89 0 140 66q48 63 48 162v12q0 100 -47 164q-50 71 -142 71q-93 0 -144 -72z" />
    <glyph glyph-name="r" unicode="r" horiz-adv-x="355" 
d="M350 521v-41q-42 12 -82 12q-79 0 -125 -73q-40 -62 -40 -146v-273h-39v517h39v-108q19 50 60 83q47 39 107 39q51 0 80 -10z" />
    <glyph glyph-name="s" unicode="s" horiz-adv-x="480" 
d="M432 374h-38q-10 58 -46 88q-41 34 -116 34q-64 0 -102 -28q-42 -27 -42 -69q0 -45 49 -72q32 -17 111 -38q96 -24 135 -47q63 -36 63 -102q0 -154 -201 -154q-193 0 -211 174h39q9 -76 53 -108q40 -31 119 -31q162 0 162 118q0 51 -54 78q-27 15 -120 39q-91 24 -126 46
q-57 35 -57 96t54 97q53 36 128 36q176 0 200 -157z" />
    <glyph glyph-name="t" unicode="t" horiz-adv-x="346" 
d="M174 684v-167h143v-35h-143v-373q0 -42 14 -57q12 -17 52 -17h65v-35h-68q-58 0 -81 29q-20 26 -20 80v373h-117v35h117v150z" />
    <glyph glyph-name="u" unicode="u" horiz-adv-x="532" 
d="M64 517h39v-317q0 -88 37 -132q39 -47 121 -47q70 0 118 51t51 132v313h38v-517h-38v96q-59 -110 -176 -110q-190 0 -190 213v318z" />
    <glyph glyph-name="v" unicode="v" horiz-adv-x="452" 
d="M5 517h43l178 -467l178 467h43l-200 -517h-42z" />
    <glyph glyph-name="w" unicode="w" horiz-adv-x="728" 
d="M5 517h43l155 -463l141 463h40l141 -463l155 463h43l-179 -517h-38l-141 463l-143 -463h-38z" />
    <glyph glyph-name="x" unicode="x" horiz-adv-x="476" 
d="M26 517h48l164 -215l164 215h47l-188 -245l210 -272h-48l-185 243l-186 -243h-47l210 272z" />
    <glyph glyph-name="y" unicode="y" horiz-adv-x="459" 
d="M5 517h43l182 -456l180 456h44l-287 -715h-43l86 211z" />
    <glyph glyph-name="z" unicode="z" horiz-adv-x="465" 
d="M35 517h389v-35l-351 -447h367v-35h-415v35l352 447h-342v35z" />
    <glyph glyph-name="braceleft" unicode="{" horiz-adv-x="333" 
d="M300 827v-34h-52q-80 0 -80 -88v-228q0 -87 -75 -117q75 -30 75 -117v-229q0 -87 80 -87h52v-34h-55q-54 0 -84 33t-30 89v228q0 48 -20 71q-23 26 -78 26v40q55 1 78 26q20 23 20 70v228q0 57 30 90t84 33h55z" />
    <glyph glyph-name="bar" unicode="|" horiz-adv-x="172" 
d="M68 860h36v-1000h-36v1000z" />
    <glyph glyph-name="braceright" unicode="}" horiz-adv-x="333" 
d="M33 827h55q53 0 84 -33q30 -33 30 -90v-228q0 -49 20 -70q21 -25 78 -26v-40q-55 0 -77 -25q-21 -24 -21 -72v-228q0 -56 -30 -89q-31 -33 -84 -33h-55v34h52q80 0 80 87v229q0 87 75 117q-75 30 -75 117v228q0 88 -80 88h-52v34z" />
    <glyph glyph-name="asciitilde" unicode="~" horiz-adv-x="500" 
d="M255 378q68 -48 101 -48q42 0 93 75l27 -20q-63 -89 -120 -89q-42 0 -110 48q-69 48 -102 48q-42 0 -93 -75l-27 20q61 89 120 89q42 0 111 -48z" />
    <glyph glyph-name="uni007F" horiz-adv-x="0" 
 />
    <glyph glyph-name="uni00A0" unicode="&#xa0;" horiz-adv-x="333" 
 />
    <glyph glyph-name="exclamdown" unicode="&#xa1;" horiz-adv-x="333" 
d="M195 506q12 -12 12 -29t-12 -29q-13 -11 -28 -11q-17 0 -28 11q-12 12 -12 29t12 29q10 11 28 11q17 0 28 -11zM150 340h34l4 -538h-42z" />
    <glyph glyph-name="cent" unicode="&#xa2;" horiz-adv-x="600" 
d="M383 621l37 101l29 -10l-37 -101q21 -9 42 -26q57 -45 69 -136h-38q-10 72 -56 109q-13 11 -30 19l-164 -445q32 -12 72 -12q154 0 181 161h38q-15 -94 -72 -145q-55 -51 -147 -51q-43 0 -84 13l-43 -116l-29 10l44 118q-35 19 -63 53q-57 72 -57 189q0 119 60 195
q62 83 173 83q41 0 75 -9zM370 587q-25 8 -62 8q-89 0 -143 -70q-51 -66 -51 -173q0 -104 48 -167q21 -26 46 -40z" />
    <glyph glyph-name="sterling" unicode="&#xa3;" horiz-adv-x="600" 
d="M506 642q32 -53 40 -138h-39q-9 92 -47 137q-45 51 -128 51q-80 0 -125 -46q-45 -45 -45 -117q0 -55 25 -152l2 -9h228v-30h-220q16 -75 16 -110q0 -117 -96 -192h412v-36h-463v40q109 74 109 187q0 37 -17 111h-119v30h112l-2 7q-26 98 -26 155q0 88 57 142
q55 56 153 56q118 0 173 -86z" />
    <glyph glyph-name="currency" unicode="&#xa4;" horiz-adv-x="600" 
d="M76 608l81 -81q60 53 143 53q81 0 143 -53l81 81l24 -24l-81 -81q52 -61 52 -142q0 -79 -53 -143l82 -81l-24 -24l-82 81q-63 -52 -142 -52q-81 0 -142 52l-81 -81l-24 24l81 81q-53 62 -53 143q0 83 53 142l-82 81zM173 488q-53 -52 -53 -127q0 -74 53 -127t127 -53
q73 0 128 53q52 55 52 127q0 73 -52 127q-53 53 -128 53t-127 -53z" />
    <glyph glyph-name="yen" unicode="&#xa5;" horiz-adv-x="600" 
d="M45 714h46l209 -361l209 361h46l-218 -373h174v-31h-191v-114h191v-31h-191v-165h-40v165h-191v31h191v114h-191v31h174z" />
    <glyph glyph-name="brokenbar" unicode="&#xa6;" horiz-adv-x="172" 
d="M68 714h36v-308h-36v308zM68 308h36v-308h-36v308z" />
    <glyph glyph-name="section" unicode="&#xa7;" horiz-adv-x="600" 
d="M469 806v-39q-71 31 -149 31q-77 0 -118 -34q-44 -32 -44 -83q0 -46 39 -82q32 -29 101 -62q110 -53 135 -71q65 -44 65 -92q0 -42 -41 -88q-36 -36 -89 -71q61 -27 88 -53q51 -43 51 -108q0 -72 -63 -120q-63 -46 -157 -46q-92 0 -178 36v39q87 -39 178 -39q78 0 132 40
q50 36 50 87q0 55 -51 94q-33 26 -117 61q-111 47 -141 66q-66 42 -66 94q0 47 56 100q40 37 86 60q-48 25 -76 55q-40 43 -40 99q0 70 56 111q55 43 144 43q74 0 149 -28zM184 447q-52 -45 -52 -80q0 -38 69 -77q18 -9 128 -57q131 80 131 140q0 35 -65 74q-24 15 -122 61
q-48 -23 -89 -61z" />
    <glyph glyph-name="dieresis" unicode="&#xa8;" horiz-adv-x="500" 
d="M353 848q9 -7 9 -24q0 -15 -9 -24t-24 -9q-16 0 -24 9q-9 9 -9 24q0 17 9 24q8 9 24 9q15 0 24 -9zM195 848q9 -7 9 -24q0 -15 -9 -24t-25 -9q-15 0 -23 9q-9 9 -9 24q0 17 9 24q8 9 23 9q16 0 25 -9z" />
    <glyph glyph-name="copyright" unicode="&#xa9;" horiz-adv-x="802" 
d="M664 620q108 -108 108 -263q0 -153 -108 -263q-109 -108 -263 -108q-155 0 -263 108q-108 110 -108 263q0 155 108 263t263 108q154 0 263 -108zM160 598q-100 -99 -100 -241q0 -141 100 -241t241 -100q139 0 241 100q100 102 100 241q0 141 -100 241t-241 100
q-142 0 -241 -100zM529 551q52 -40 62 -106h-36q-9 51 -49 79q-39 29 -95 29q-82 0 -129 -57q-46 -56 -46 -142q0 -84 46 -139q45 -54 124 -54q57 0 100 33q43 34 55 93h36q-15 -76 -70 -121q-51 -39 -121 -39q-96 0 -153 68q-53 63 -53 159q0 98 54 162q56 71 157 71
q69 0 118 -36z" />
    <glyph glyph-name="ordfeminine" unicode="&#xaa;" horiz-adv-x="346" 
d="M288 689q29 -34 29 -88v-213h-33v64q-58 -73 -142 -73q-50 0 -81 25q-32 26 -32 69q0 67 55 95q41 22 115 22h85v8q0 99 -101 99q-99 0 -111 -83h-33q17 114 145 114q68 0 104 -39zM200 560q-136 0 -136 -87q0 -28 22 -46q22 -17 60 -17q51 0 96 36q42 36 42 70v44h-84z
" />
    <glyph glyph-name="guillemotleft" unicode="&#xab;" horiz-adv-x="565" 
d="M535 574v-40l-251 -174l251 -174v-40l-285 197v34zM315 574v-40l-251 -174l251 -174v-40l-285 197v34z" />
    <glyph glyph-name="logicalnot" unicode="&#xac;" horiz-adv-x="605" 
d="M50 277h505v-209h-35v173h-470v36z" />
    <glyph glyph-name="uni00AD" unicode="&#xad;" horiz-adv-x="333" 
d="M42 277h250v-36h-250v36z" />
    <glyph glyph-name="registered" unicode="&#xae;" horiz-adv-x="802" 
d="M664 620q108 -108 108 -263q0 -153 -108 -263q-109 -108 -263 -108q-155 0 -263 108q-108 110 -108 263q0 155 108 263t263 108q154 0 263 -108zM160 598q-100 -99 -100 -241q0 -141 100 -241t241 -100q139 0 241 100q100 102 100 241q0 141 -100 241t-241 100
q-142 0 -241 -100zM241 578h179q66 0 102 -32q38 -30 38 -87q0 -82 -76 -108q39 -12 54 -43q11 -22 14 -69q6 -73 24 -103h-41q-14 31 -17 99q-4 55 -27 76q-23 22 -79 22h-135v-197h-36v442zM277 545v-179h137q53 0 83 27q27 26 27 63q0 89 -111 89h-136z" />
    <glyph glyph-name="macron" unicode="&#xaf;" horiz-adv-x="669" 
d="M0 860h669v-35h-669v35z" />
    <glyph glyph-name="degree" unicode="&#xb0;" horiz-adv-x="324" 
d="M245 789q35 -33 35 -83q0 -48 -35 -83t-83 -35q-50 0 -83 35q-35 34 -35 83q0 51 35 83q33 36 83 36q49 0 83 -36zM100 769q-26 -26 -26 -63q0 -36 26 -62t62 -26t62 26q26 28 26 62q0 35 -26 63q-25 26 -62 26t-62 -26z" />
    <glyph glyph-name="plusminus" unicode="&#xb1;" horiz-adv-x="605" 
d="M285 517h36v-178h234v-35h-234v-178h-36v178h-235v35h235v178zM50 35h505v-35h-505v35z" />
    <glyph glyph-name="uni00B2" unicode="&#xb2;" horiz-adv-x="500" 
d="M351 795q38 -33 38 -90t-43 -103q-23 -23 -92 -69q-96 -66 -108 -117h244v-31h-283q0 54 46 103q31 36 87 74q64 45 78 58q39 39 39 85q0 43 -29 67q-29 26 -75 26q-49 0 -77 -32q-31 -34 -31 -97h-33q0 78 41 120q37 40 101 40q59 0 97 -34z" />
    <glyph glyph-name="uni00B3" unicode="&#xb3;" horiz-adv-x="500" 
d="M352 796q37 -32 37 -84q0 -72 -61 -99q71 -30 71 -103q0 -58 -42 -96q-43 -37 -107 -37q-53 0 -93 28q-51 38 -56 116h33q3 -61 43 -92q29 -21 73 -21q50 0 84 28q32 30 32 74q0 39 -29 63q-30 24 -75 24h-47v30h42q100 0 100 84q0 39 -27 63q-28 24 -76 24
q-98 0 -110 -104h-33q6 64 45 100q35 35 98 35q61 0 98 -33z" />
    <glyph glyph-name="acute" unicode="&#xb4;" horiz-adv-x="333" 
d="M196 901h51l-128 -146h-32z" />
    <glyph glyph-name="mu" unicode="&#xb5;" horiz-adv-x="532" 
d="M64 517h39v-315q0 -181 158 -181q70 0 118 51t51 132v313h38v-517h-38v96q-30 -57 -74 -84q-43 -26 -99 -26q-110 0 -154 85v-269h-39v715z" />
    <glyph glyph-name="paragraph" unicode="&#xb6;" horiz-adv-x="526" 
d="M456 811v-904h-34v872h-178v-872h-34v578q-82 0 -130 39q-52 43 -52 124q0 79 47 120q46 43 127 43h254z" />
    <glyph glyph-name="periodcentered" unicode="&#xb7;" horiz-adv-x="500" 
d="M297 409q21 -19 21 -48q0 -27 -21 -48q-20 -20 -47 -20q-29 0 -47 20q-21 21 -21 48q0 29 21 48q17 20 47 20q28 0 47 -20z" />
    <glyph glyph-name="cedilla" unicode="&#xb8;" horiz-adv-x="277" 
d="M122 3h27l-22 -60q9 1 20 1q41 0 64 -16q26 -18 26 -56q0 -40 -34 -65q-30 -19 -71 -19q-51 0 -92 23l10 22q42 -21 79 -21q35 0 58 17q21 17 21 42q0 49 -70 49q-16 0 -48 -3z" />
    <glyph glyph-name="uni00B9" unicode="&#xb9;" horiz-adv-x="500" 
d="M276 821v-436h-34v389q-42 -41 -107 -60v33q69 21 113 74h28z" />
    <glyph glyph-name="ordmasculine" unicode="&#xba;" horiz-adv-x="376" 
d="M307 674q40 -51 40 -121q0 -69 -40 -120q-45 -54 -118 -54q-75 0 -120 54q-40 49 -40 120q0 72 40 121q45 54 120 54q73 0 118 -54zM96 654q-32 -38 -32 -101q0 -62 32 -101q33 -42 93 -42q58 0 92 42q32 41 32 101q0 61 -32 101q-34 43 -92 43q-60 0 -93 -43z" />
    <glyph glyph-name="guillemotright" unicode="&#xbb;" horiz-adv-x="565" 
d="M250 574l285 -197v-34l-285 -197v40l251 174l-251 174v40zM30 574l285 -197v-34l-285 -197v40l251 174l-251 174v40z" />
    <glyph glyph-name="onequarter" unicode="&#xbc;" 
d="M808 336h40v-303h74v-29h-74v-104h-33v104h-234v28zM822 820h43l-687 -920h-43zM243 821v-436h-33v389q-42 -40 -107 -60v33q69 22 113 74h27zM812 296l-193 -263h196v263h-3z" />
    <glyph glyph-name="onehalf" unicode="&#xbd;" 
d="M875 311q38 -33 38 -91q0 -57 -44 -103q-22 -22 -91 -69q-97 -66 -109 -117h245v-31h-283q0 54 45 103q31 36 87 74q63 44 79 58q38 40 38 85q0 42 -28 67q-29 26 -75 26q-51 0 -77 -32q-31 -32 -31 -97h-34q0 76 41 120q37 40 101 40q59 0 98 -33zM822 820h43l-687 -920
h-43zM243 821v-436h-33v389q-42 -40 -107 -60v33q69 22 113 74h27z" />
    <glyph glyph-name="threequarters" unicode="&#xbe;" 
d="M808 336h40v-303h74v-29h-74v-104h-33v104h-234v28zM822 820h43l-687 -920h-43zM324 796q37 -32 37 -84q0 -72 -61 -99q71 -30 71 -103q0 -58 -42 -96q-43 -37 -107 -37q-53 0 -93 28q-51 38 -56 116h33q3 -61 43 -92q29 -21 73 -21q50 0 84 28q32 30 32 74q0 39 -29 63
q-30 24 -75 24h-47v30h42q100 0 100 84q0 39 -27 63q-28 24 -76 24q-98 0 -110 -104h-33q6 64 45 100q35 35 98 35q61 0 98 -33zM812 296l-193 -263h196v263h-3z" />
    <glyph glyph-name="questiondown" unicode="&#xbf;" horiz-adv-x="512" 
d="M290 506q11 -13 11 -29t-11 -29q-13 -11 -29 -11t-29 11q-11 11 -11 29t11 29t29 11t29 -11zM242 341h39v-35q0 -44 -26 -90q-23 -38 -65 -77q-55 -49 -69 -70q-32 -41 -32 -89q0 -71 41 -113q42 -42 121 -42q84 0 131 59q38 50 41 135h39q-3 -95 -53 -159
q-57 -71 -159 -71q-95 0 -148 54q-52 51 -52 135q0 61 37 110q22 29 77 76q38 36 54 60q24 39 24 82v35z" />
    <glyph glyph-name="Agrave" unicode="&#xc0;" horiz-adv-x="629" 
d="M212 901h51l109 -146h-32zM291 714h48l290 -714h-43l-90 226h-361l-91 -226h-44zM149 262h333l-165 410h-3z" />
    <glyph glyph-name="Aacute" unicode="&#xc1;" horiz-adv-x="629" 
d="M367 901h50l-128 -146h-32zM291 714h48l290 -714h-43l-90 226h-361l-91 -226h-44zM149 262h333l-165 410h-3z" />
    <glyph glyph-name="Acircumflex" unicode="&#xc2;" horiz-adv-x="629" 
d="M301 893h28l114 -127h-34l-94 102l-95 -102h-34zM291 714h48l290 -714h-43l-90 226h-361l-91 -226h-44zM149 262h333l-165 410h-3z" />
    <glyph glyph-name="Atilde" unicode="&#xc3;" horiz-adv-x="629" 
d="M317 844q44 -28 63 -28q31 0 56 43l23 -14q-30 -57 -79 -57q-25 0 -69 28q-43 29 -62 29q-30 0 -56 -42l-22 15q33 55 77 55q23 0 69 -29zM291 714h48l290 -714h-43l-90 226h-361l-91 -226h-44zM149 262h333l-165 410h-3z" />
    <glyph glyph-name="Adieresis" unicode="&#xc4;" horiz-adv-x="629" 
d="M418 848q8 -8 8 -24q0 -14 -8 -24q-9 -9 -25 -9q-15 0 -24 9q-8 8 -8 24q0 17 8 24q9 9 24 9q16 0 25 -9zM260 848q8 -8 8 -24q0 -14 -8 -24q-9 -9 -25 -9q-15 0 -24 9q-8 8 -8 24q0 17 8 24q9 9 24 9q16 0 25 -9zM291 714h48l290 -714h-43l-90 226h-361l-91 -226h-44z
M149 262h333l-165 410h-3z" />
    <glyph glyph-name="Aring" unicode="&#xc5;" horiz-adv-x="629" 
d="M373 883q25 -27 25 -59q0 -33 -25 -58q-24 -24 -57 -24q-35 0 -59 24t-24 58t24 59q24 24 59 24q33 0 57 -24zM274 866q-18 -16 -18 -42q0 -23 18 -41q17 -17 42 -17q23 0 41 16q17 19 17 42q0 25 -17 42q-19 17 -41 17q-25 0 -42 -17zM291 714h48l290 -714h-43l-90 226
h-361l-91 -226h-44zM149 262h333l-165 410h-3z" />
    <glyph glyph-name="AE" unicode="&#xc6;" horiz-adv-x="937" 
d="M399 714h491v-36h-401v-289h378v-36h-378v-317h418v-36h-456v226h-281l-126 -226h-44zM190 262h261v412h-30z" />
    <glyph glyph-name="Ccedilla" unicode="&#xc7;" horiz-adv-x="723" 
d="M570 668q87 -63 99 -167h-38q-12 87 -86 140q-71 50 -164 50q-139 0 -222 -99q-76 -94 -76 -239q0 -144 76 -235q78 -95 213 -95q96 0 169 53q79 61 100 166h38q-24 -123 -112 -193q-78 -59 -181 -63l-17 -43q8 1 21 1q38 0 62 -15q27 -18 27 -57q0 -41 -33 -65
q-32 -19 -72 -19q-49 0 -92 23l10 22q42 -21 79 -21q35 0 57 17t22 42q0 49 -69 49q-16 0 -48 -3l25 69q-144 6 -229 109q-85 101 -85 258q0 158 86 262q91 113 251 113q108 0 189 -60z" />
    <glyph glyph-name="Egrave" unicode="&#xc8;" horiz-adv-x="630" 
d="M219 901h50l110 -146h-32zM74 714h495v-36h-456v-289h433v-36h-433v-317h473v-36h-512v714z" />
    <glyph glyph-name="Eacute" unicode="&#xc9;" horiz-adv-x="630" 
d="M370 901h50l-128 -146h-32zM74 714h495v-36h-456v-289h433v-36h-433v-317h473v-36h-512v714z" />
    <glyph glyph-name="Ecircumflex" unicode="&#xca;" horiz-adv-x="630" 
d="M301 893h28l115 -127h-34l-95 102l-94 -102h-34zM74 714h495v-36h-456v-289h433v-36h-433v-317h473v-36h-512v714z" />
    <glyph glyph-name="Edieresis" unicode="&#xcb;" horiz-adv-x="630" 
d="M419 848q8 -8 8 -24q0 -14 -8 -24q-9 -9 -25 -9t-24 9q-9 9 -9 24q0 17 9 24q8 9 24 9t25 -9zM260 848q9 -7 9 -24q0 -15 -9 -24t-24 -9q-16 0 -24 9q-9 9 -9 24q0 17 9 24q8 9 24 9q15 0 24 -9zM74 714h495v-36h-456v-289h433v-36h-433v-317h473v-36h-512v714z" />
    <glyph glyph-name="Igrave" unicode="&#xcc;" horiz-adv-x="212" 
d="M-4 901h50l110 -146h-32zM87 714h39v-714h-39v714z" />
    <glyph glyph-name="Iacute" unicode="&#xcd;" horiz-adv-x="212" 
d="M166 901h50l-128 -146h-32zM87 714h39v-714h-39v714z" />
    <glyph glyph-name="Icircumflex" unicode="&#xce;" horiz-adv-x="212" 
d="M92 893h28l115 -127h-34l-95 102l-94 -102h-34zM87 714h39v-714h-39v714z" />
    <glyph glyph-name="Idieresis" unicode="&#xcf;" horiz-adv-x="212" 
d="M210 848q8 -8 8 -24q0 -14 -8 -24q-9 -9 -25 -9t-24 9q-8 8 -8 24q0 17 8 24q8 9 24 9t25 -9zM52 848q8 -8 8 -24q0 -14 -8 -24q-9 -9 -25 -9t-24 9q-9 9 -9 24q0 17 9 24q8 9 24 9q15 0 25 -9zM87 714h39v-714h-39v714z" />
    <glyph glyph-name="Eth" unicode="&#xd0;" horiz-adv-x="707" 
d="M92 714h251q166 0 246 -101q74 -91 74 -256q0 -160 -86 -257q-91 -100 -253 -100h-232v343h-92v32h92v339zM131 678v-303h213v-32h-213v-307h190q145 0 227 88q76 87 76 233q0 153 -64 234q-72 87 -221 87h-208z" />
    <glyph glyph-name="Ntilde" unicode="&#xd1;" horiz-adv-x="703" 
d="M354 844q44 -28 63 -28q31 0 56 43l23 -14q-30 -57 -78 -57q-24 0 -71 28q-42 29 -61 29q-30 0 -56 -42l-22 15q33 55 77 55q23 0 69 -29zM74 714h50l464 -661h2v661h39v-714h-48l-466 665h-2v-665h-39v714z" />
    <glyph glyph-name="Ograve" unicode="&#xd2;" horiz-adv-x="757" 
d="M277 901h51l110 -146h-32zM627 619q86 -103 86 -262t-86 -263q-93 -108 -248 -108q-157 0 -248 109q-87 102 -87 262t87 262q91 109 248 109t248 -109zM160 595q-77 -92 -77 -238q0 -148 77 -238q81 -96 219 -96q137 0 218 96q77 92 77 238q0 147 -77 238q-81 96 -218 96
q-138 0 -219 -96z" />
    <glyph glyph-name="Oacute" unicode="&#xd3;" horiz-adv-x="757" 
d="M430 901h51l-128 -146h-32zM627 619q86 -103 86 -262t-86 -263q-93 -108 -248 -108q-157 0 -248 109q-87 102 -87 262t87 262q91 109 248 109t248 -109zM160 595q-77 -92 -77 -238q0 -148 77 -238q81 -96 219 -96q137 0 218 96q77 92 77 238q0 147 -77 238
q-81 96 -218 96q-138 0 -219 -96z" />
    <glyph glyph-name="Ocircumflex" unicode="&#xd4;" horiz-adv-x="757" 
d="M365 893h28l114 -127h-34l-94 102l-95 -102h-34zM627 619q86 -103 86 -262t-86 -263q-93 -108 -248 -108q-157 0 -248 109q-87 102 -87 262t87 262q91 109 248 109t248 -109zM160 595q-77 -92 -77 -238q0 -148 77 -238q81 -96 219 -96q137 0 218 96q77 92 77 238
q0 147 -77 238q-81 96 -218 96q-138 0 -219 -96z" />
    <glyph glyph-name="Otilde" unicode="&#xd5;" horiz-adv-x="757" 
d="M381 844q44 -28 63 -28q31 0 56 43l22 -14q-30 -57 -78 -57q-25 0 -70 28q-42 29 -61 29q-30 0 -56 -42l-22 15q33 55 77 55q23 0 69 -29zM627 619q86 -103 86 -262t-86 -263q-93 -108 -248 -108q-157 0 -248 109q-87 102 -87 262t87 262q91 109 248 109t248 -109z
M160 595q-77 -92 -77 -238q0 -148 77 -238q81 -96 219 -96q137 0 218 96q77 92 77 238q0 147 -77 238q-81 96 -218 96q-138 0 -219 -96z" />
    <glyph glyph-name="Odieresis" unicode="&#xd6;" horiz-adv-x="757" 
d="M482 848q8 -8 8 -24q0 -14 -8 -24q-9 -9 -25 -9q-15 0 -24 9q-8 8 -8 24q0 17 8 24q9 9 24 9q16 0 25 -9zM324 848q8 -8 8 -24q0 -14 -8 -24q-9 -9 -25 -9q-15 0 -24 9q-8 8 -8 24q0 17 8 24q9 9 24 9q16 0 25 -9zM627 619q86 -103 86 -262t-86 -263q-93 -108 -248 -108
q-157 0 -248 109q-87 102 -87 262t87 262q91 109 248 109t248 -109zM160 595q-77 -92 -77 -238q0 -148 77 -238q81 -96 219 -96q137 0 218 96q77 92 77 238q0 147 -77 238q-81 96 -218 96q-138 0 -219 -96z" />
    <glyph glyph-name="multiply" unicode="&#xd7;" horiz-adv-x="605" 
d="M94 492l209 -209l209 209l25 -25l-209 -209l209 -209l-25 -25l-209 209l-209 -209l-25 25l209 209l-209 209z" />
    <glyph glyph-name="Oslash" unicode="&#xd8;" horiz-adv-x="757" 
d="M561 679l54 94l27 -15l-56 -98q25 -22 41 -41q86 -103 86 -262t-86 -263q-93 -108 -248 -108q-90 0 -161 37l-49 -86l-27 15l50 87q-37 27 -61 56q-87 102 -87 262t87 262q91 109 248 109q106 0 182 -49zM160 595q-77 -92 -77 -238q0 -148 77 -238q20 -24 51 -47l331 573
q-68 46 -163 46q-138 0 -219 -96zM237 56q60 -33 142 -33q137 0 218 96q77 92 77 238q0 147 -77 238q-13 16 -30 31z" />
    <glyph glyph-name="Ugrave" unicode="&#xd9;" horiz-adv-x="689" 
d="M235 901h50l110 -146h-32zM74 714h39v-436q0 -124 53 -186q58 -70 178 -70q121 0 179 70q53 64 53 186v436h39v-435q0 -139 -63 -213q-68 -80 -208 -80q-139 0 -207 79q-63 75 -63 214v435z" />
    <glyph glyph-name="Uacute" unicode="&#xda;" horiz-adv-x="689" 
d="M404 901h50l-128 -146h-32zM74 714h39v-436q0 -124 53 -186q58 -70 178 -70q121 0 179 70q53 64 53 186v436h39v-435q0 -139 -63 -213q-68 -80 -208 -80q-139 0 -207 79q-63 75 -63 214v435z" />
    <glyph glyph-name="Ucircumflex" unicode="&#xdb;" horiz-adv-x="689" 
d="M331 893h28l115 -127h-34l-95 102l-94 -102h-34zM74 714h39v-436q0 -124 53 -186q58 -70 178 -70q121 0 179 70q53 64 53 186v436h39v-435q0 -139 -63 -213q-68 -80 -208 -80q-139 0 -207 79q-63 75 -63 214v435z" />
    <glyph glyph-name="Udieresis" unicode="&#xdc;" horiz-adv-x="689" 
d="M449 848q8 -8 8 -24q0 -14 -8 -24q-9 -9 -25 -9t-24 9q-8 8 -8 24q0 17 8 24q8 9 24 9q15 0 25 -9zM290 848q9 -7 9 -24q0 -15 -9 -24t-24 -9q-16 0 -24 9q-9 9 -9 24q0 17 9 24q8 9 24 9q15 0 24 -9zM74 714h39v-436q0 -124 53 -186q58 -70 178 -70q121 0 179 70
q53 64 53 186v436h39v-435q0 -139 -63 -213q-68 -80 -208 -80q-139 0 -207 79q-63 75 -63 214v435z" />
    <glyph glyph-name="Yacute" unicode="&#xdd;" horiz-adv-x="626" 
d="M368 901h50l-128 -146h-32zM5 714h49l259 -380l260 380h48l-288 -417v-297h-39v297z" />
    <glyph glyph-name="Thorn" unicode="&#xde;" horiz-adv-x="626" 
d="M74 714h39v-147h249q229 0 229 -199q0 -201 -230 -201h-248v-167h-39v714zM113 531v-328h247q98 0 146 42q46 43 46 123t-46 120q-47 43 -146 43h-247z" />
    <glyph glyph-name="germandbls" unicode="&#xdf;" horiz-adv-x="614" 
d="M482 675q63 -51 63 -141q0 -56 -29 -99q-30 -43 -79 -61q133 -41 133 -178q0 -92 -61 -151t-154 -59q-50 0 -120 7v37q56 -8 116 -8q78 0 129 48q51 50 51 126q0 75 -46 116q-45 42 -129 42h-84v34h86q62 0 105 39q43 41 43 106q0 72 -50 116q-50 43 -137 43
q-95 0 -151 -62q-55 -59 -55 -170v-460h-39v460q0 125 68 196q66 72 175 72q105 0 165 -53z" />
    <glyph glyph-name="agrave" unicode="&#xe0;" horiz-adv-x="543" 
d="M160 722h50l110 -146h-32zM435 471q44 -50 44 -137v-334h-37v111q-32 -46 -87 -83q-66 -42 -143 -42q-74 0 -121 38q-47 40 -47 106q0 99 83 143q64 35 175 35l139 1v21q0 166 -165 166q-74 0 -119 -33q-50 -35 -59 -100h-38q12 84 71 127q54 41 146 41q106 0 158 -60z
M441 275l-138 -1q-220 -1 -220 -145q0 -49 37 -79q37 -29 99 -29q84 0 155 59q67 59 67 120v75z" />
    <glyph glyph-name="aacute" unicode="&#xe1;" horiz-adv-x="543" 
d="M326 722h50l-128 -146h-32zM435 471q44 -50 44 -137v-334h-37v111q-32 -46 -87 -83q-66 -42 -143 -42q-74 0 -121 38q-47 40 -47 106q0 99 83 143q64 35 175 35l139 1v21q0 166 -165 166q-74 0 -119 -33q-50 -35 -59 -100h-38q12 84 71 127q54 41 146 41q106 0 158 -60z
M441 275l-138 -1q-220 -1 -220 -145q0 -49 37 -79q37 -29 99 -29q84 0 155 59q67 59 67 120v75z" />
    <glyph glyph-name="acircumflex" unicode="&#xe2;" horiz-adv-x="543" 
d="M258 716h28l115 -127h-34l-95 102l-94 -102h-35zM435 471q44 -50 44 -137v-334h-37v111q-32 -46 -87 -83q-66 -42 -143 -42q-74 0 -121 38q-47 40 -47 106q0 99 83 143q64 35 175 35l139 1v21q0 166 -165 166q-74 0 -119 -33q-50 -35 -59 -100h-38q12 84 71 127
q54 41 146 41q106 0 158 -60zM441 275l-138 -1q-220 -1 -220 -145q0 -49 37 -79q37 -29 99 -29q84 0 155 59q67 59 67 120v75z" />
    <glyph glyph-name="atilde" unicode="&#xe3;" horiz-adv-x="543" 
d="M274 666q43 -29 63 -29q31 0 56 43l23 -14q-30 -57 -78 -57q-25 0 -71 29q-43 28 -61 28q-30 0 -56 -42l-22 14q32 56 77 56q25 0 69 -28zM435 471q44 -50 44 -137v-334h-37v111q-32 -46 -87 -83q-66 -42 -143 -42q-74 0 -121 38q-47 40 -47 106q0 99 83 143
q64 35 175 35l139 1v21q0 166 -165 166q-74 0 -119 -33q-50 -35 -59 -100h-38q12 84 71 127q54 41 146 41q106 0 158 -60zM441 275l-138 -1q-220 -1 -220 -145q0 -49 37 -79q37 -29 99 -29q84 0 155 59q67 59 67 120v75z" />
    <glyph glyph-name="adieresis" unicode="&#xe4;" horiz-adv-x="543" 
d="M375 676q9 -9 9 -25q0 -15 -9 -24q-10 -8 -25 -8t-23 8q-9 9 -9 24q0 16 9 25q7 8 23 8q17 0 25 -8zM217 676q8 -10 8 -25q0 -14 -8 -24q-10 -8 -25 -8q-14 0 -24 8q-8 8 -8 24q0 17 8 25t24 8q17 0 25 -8zM435 471q44 -50 44 -137v-334h-37v111q-32 -46 -87 -83
q-66 -42 -143 -42q-74 0 -121 38q-47 40 -47 106q0 99 83 143q64 35 175 35l139 1v21q0 166 -165 166q-74 0 -119 -33q-50 -35 -59 -100h-38q12 84 71 127q54 41 146 41q106 0 158 -60zM441 275l-138 -1q-220 -1 -220 -145q0 -49 37 -79q37 -29 99 -29q84 0 155 59
q67 59 67 120v75z" />
    <glyph glyph-name="aring" unicode="&#xe5;" horiz-adv-x="543" 
d="M331 710q24 -24 24 -59q0 -34 -24 -58t-58 -24q-35 0 -59 24t-24 58q0 35 24 59t59 24q34 0 58 -24zM435 471q44 -50 44 -137v-334h-37v111q-32 -46 -87 -83q-66 -42 -143 -42q-74 0 -121 38q-47 40 -47 106q0 99 83 143q64 35 175 35l139 1v21q0 166 -165 166
q-74 0 -119 -33q-50 -35 -59 -100h-38q12 84 71 127q54 41 146 41q106 0 158 -60zM230 693q-17 -16 -17 -42q0 -24 17 -41q19 -17 43 -17q23 0 42 17q16 18 16 41q0 25 -17 42t-41 17q-26 0 -43 -17zM441 275l-138 -1q-220 -1 -220 -145q0 -49 37 -79q37 -29 99 -29
q84 0 155 59q67 59 67 120v75z" />
    <glyph glyph-name="ae" unicode="&#xe6;" horiz-adv-x="913" 
d="M828 442q45 -67 51 -177h-419q0 -119 54 -184q51 -60 139 -60q135 0 176 145h40q-18 -76 -59 -118q-57 -62 -156 -62q-108 0 -170 73q-25 31 -40 70q-34 -56 -90 -94q-73 -49 -155 -49q-74 0 -119 37q-46 36 -46 100q0 176 254 176h134v32q0 69 -30 111q-39 54 -130 54
q-148 0 -175 -133h-38q12 84 70 126q56 42 144 42q157 0 187 -133q12 27 30 51q61 82 169 82q120 0 179 -89zM512 433q-46 -54 -52 -134h379q-9 81 -48 132q-50 65 -142 65q-86 0 -137 -63zM290 265q-217 0 -217 -142q0 -48 35 -76q37 -26 98 -26q80 0 149 55q67 55 67 115
v74h-132z" />
    <glyph glyph-name="ccedilla" unicode="&#xe7;" horiz-adv-x="529" 
d="M423 486q57 -45 69 -136h-38q-10 72 -56 109q-47 37 -121 37q-89 0 -143 -70q-51 -66 -51 -173q0 -105 49 -167q50 -65 144 -65q154 0 181 161h38q-15 -95 -72 -146q-53 -46 -133 -50l-16 -43q8 1 21 1q40 0 62 -16q27 -18 27 -56q0 -40 -34 -65q-30 -19 -71 -19
q-51 0 -92 23l10 22q42 -21 79 -21q35 0 58 17q21 17 21 42q0 49 -70 49q-15 0 -48 -3l26 69q-105 6 -162 78t-57 189q0 119 60 195q62 83 173 83q89 0 146 -45z" />
    <glyph glyph-name="egrave" unicode="&#xe8;" horiz-adv-x="540" 
d="M184 722h50l110 -146h-32zM449 449q51 -70 57 -203h-432q3 -104 55 -163q54 -62 141 -62q77 0 126 43q40 37 58 102h41q-18 -75 -68 -124q-62 -56 -157 -56q-108 0 -171 75q-65 75 -65 198q0 113 62 190q66 82 173 82q120 0 180 -82zM132 435q-52 -61 -58 -155h392
q-16 216 -196 216q-86 0 -138 -61z" />
    <glyph glyph-name="eacute" unicode="&#xe9;" horiz-adv-x="540" 
d="M307 722h50l-128 -146h-32zM449 449q51 -70 57 -203h-432q3 -104 55 -163q54 -62 141 -62q77 0 126 43q40 37 58 102h41q-18 -75 -68 -124q-62 -56 -157 -56q-108 0 -171 75q-65 75 -65 198q0 113 62 190q66 82 173 82q120 0 180 -82zM132 435q-52 -61 -58 -155h392
q-16 216 -196 216q-86 0 -138 -61z" />
    <glyph glyph-name="ecircumflex" unicode="&#xea;" horiz-adv-x="540" 
d="M257 716h27l115 -127h-34l-94 102l-95 -102h-34zM449 449q51 -70 57 -203h-432q3 -104 55 -163q54 -62 141 -62q77 0 126 43q40 37 58 102h41q-18 -75 -68 -124q-62 -56 -157 -56q-108 0 -171 75q-65 75 -65 198q0 113 62 190q66 82 173 82q120 0 180 -82zM132 435
q-52 -61 -58 -155h392q-16 216 -196 216q-86 0 -138 -61z" />
    <glyph glyph-name="edieresis" unicode="&#xeb;" horiz-adv-x="540" 
d="M374 676q8 -10 8 -25q0 -14 -8 -24q-10 -8 -25 -8q-14 0 -24 8q-8 8 -8 24q0 17 8 25t24 8q17 0 25 -8zM216 676q8 -10 8 -25q0 -14 -8 -24q-10 -8 -25 -8q-14 0 -24 8q-8 8 -8 24q0 17 8 25t24 8t25 -8zM449 449q51 -70 57 -203h-432q3 -104 55 -163q54 -62 141 -62
q77 0 126 43q40 37 58 102h41q-18 -75 -68 -124q-62 -56 -157 -56q-108 0 -171 75q-65 75 -65 198q0 113 62 190q66 82 173 82q120 0 180 -82zM132 435q-52 -61 -58 -155h392q-16 216 -196 216q-86 0 -138 -61z" />
    <glyph glyph-name="igrave" unicode="&#xec;" horiz-adv-x="234" 
d="M5 722h50l110 -146h-32zM98 517h38v-517h-38v517z" />
    <glyph glyph-name="iacute" unicode="&#xed;" horiz-adv-x="234" 
d="M179 722h50l-128 -146h-32zM98 517h38v-517h-38v517z" />
    <glyph glyph-name="icircumflex" unicode="&#xee;" horiz-adv-x="234" 
d="M103 716h28l114 -127h-34l-94 102l-95 -102h-34zM98 517h38v-517h-38v517z" />
    <glyph glyph-name="idieresis" unicode="&#xef;" horiz-adv-x="234" 
d="M220 676q9 -9 9 -25q0 -15 -9 -24q-10 -8 -24 -8q-16 0 -24 8q-9 9 -9 24q0 16 9 25q7 8 24 8q16 0 24 -8zM62 676q9 -9 9 -25q0 -15 -9 -24q-10 -8 -25 -8t-23 8q-9 9 -9 24q0 16 9 25q7 8 23 8q17 0 25 -8zM98 517h38v-517h-38v517z" />
    <glyph glyph-name="eth" unicode="&#xf0;" horiz-adv-x="570" 
d="M455 687q-52 -13 -111 -36q47 -45 87 -101q95 -137 95 -288q0 -121 -59 -197q-65 -79 -182 -79q-113 0 -180 76q-61 71 -61 182q0 108 66 181q65 72 171 72q110 0 178 -83q-29 88 -113 181q-23 26 -40 41q-76 -29 -174 -77l-14 29q86 42 162 72q-52 44 -100 71l28 22
q57 -34 109 -78q66 25 128 42zM138 400q-55 -61 -55 -156q0 -98 52 -159q55 -64 150 -64q97 0 153 68q49 64 49 164q0 92 -58 152q-57 57 -146 57q-92 0 -145 -62z" />
    <glyph glyph-name="ntilde" unicode="&#xf1;" horiz-adv-x="532" 
d="M269 666q43 -29 63 -29q31 0 56 43l23 -14q-30 -57 -79 -57q-26 0 -69 29q-44 28 -62 28q-30 0 -56 -42l-22 14q32 56 77 56q25 0 69 -28zM468 317v-317h-39v316q0 180 -158 180q-70 0 -117 -51q-48 -49 -51 -132v-313h-39v517h39v-94q23 48 70 79q45 29 104 29
q191 0 191 -214z" />
    <glyph glyph-name="ograve" unicode="&#xf2;" horiz-adv-x="570" 
d="M178 722h51l109 -146h-32zM465 446q61 -76 61 -188q0 -109 -61 -188q-67 -84 -180 -84q-114 0 -180 84q-61 77 -61 188q0 114 61 188q66 85 180 85q113 0 180 -85zM135 424q-52 -65 -52 -166q0 -100 52 -165q54 -72 150 -72q93 0 150 72q52 67 52 165q0 99 -52 166
q-57 72 -150 72q-96 0 -150 -72z" />
    <glyph glyph-name="oacute" unicode="&#xf3;" horiz-adv-x="570" 
d="M341 722h51l-128 -146h-32zM465 446q61 -76 61 -188q0 -109 -61 -188q-67 -84 -180 -84q-114 0 -180 84q-61 77 -61 188q0 114 61 188q66 85 180 85q113 0 180 -85zM135 424q-52 -65 -52 -166q0 -100 52 -165q54 -72 150 -72q93 0 150 72q52 67 52 165q0 99 -52 166
q-57 72 -150 72q-96 0 -150 -72z" />
    <glyph glyph-name="ocircumflex" unicode="&#xf4;" horiz-adv-x="570" 
d="M271 716h28l115 -127h-35l-94 102l-95 -102h-34zM465 446q61 -76 61 -188q0 -109 -61 -188q-67 -84 -180 -84q-114 0 -180 84q-61 77 -61 188q0 114 61 188q66 85 180 85q113 0 180 -85zM135 424q-52 -65 -52 -166q0 -100 52 -165q54 -72 150 -72q93 0 150 72
q52 67 52 165q0 99 -52 166q-57 72 -150 72q-96 0 -150 -72z" />
    <glyph glyph-name="otilde" unicode="&#xf5;" horiz-adv-x="570" 
d="M287 666q43 -29 63 -29q31 0 56 43l23 -14q-30 -57 -78 -57q-26 0 -70 29q-44 28 -62 28q-30 0 -56 -42l-22 14q32 56 77 56q25 0 69 -28zM465 446q61 -76 61 -188q0 -109 -61 -188q-67 -84 -180 -84q-114 0 -180 84q-61 77 -61 188q0 114 61 188q66 85 180 85
q113 0 180 -85zM135 424q-52 -65 -52 -166q0 -100 52 -165q54 -72 150 -72q93 0 150 72q52 67 52 165q0 99 -52 166q-57 72 -150 72q-96 0 -150 -72z" />
    <glyph glyph-name="odieresis" unicode="&#xf6;" horiz-adv-x="570" 
d="M388 676q9 -9 9 -25q0 -15 -9 -24q-10 -8 -24 -8q-16 0 -24 8q-9 9 -9 24q0 16 9 25q7 8 24 8q16 0 24 -8zM230 676q9 -9 9 -25q0 -15 -9 -24q-10 -8 -25 -8q-14 0 -24 8q-8 8 -8 24q0 17 8 25t24 8q17 0 25 -8zM465 446q61 -76 61 -188q0 -109 -61 -188
q-67 -84 -180 -84q-114 0 -180 84q-61 77 -61 188q0 114 61 188q66 85 180 85q113 0 180 -85zM135 424q-52 -65 -52 -166q0 -100 52 -165q54 -72 150 -72q93 0 150 72q52 67 52 165q0 99 -52 166q-57 72 -150 72q-96 0 -150 -72z" />
    <glyph glyph-name="divide" unicode="&#xf7;" horiz-adv-x="605" 
d="M331 463q12 -12 12 -29t-12 -29q-13 -11 -28 -11q-17 0 -28 11q-12 12 -12 29t12 29q10 10 28 10q17 0 28 -10zM50 277h505v-36h-505v36zM331 112q12 -12 12 -29t-12 -29q-13 -11 -28 -11q-17 0 -28 11q-12 12 -12 29t12 29q10 10 28 10q17 0 28 -10z" />
    <glyph glyph-name="oslash" unicode="&#xf8;" horiz-adv-x="570" 
d="M424 487l50 78l26 -17l-52 -82q8 -8 17 -20q61 -76 61 -188q0 -109 -61 -188q-67 -84 -180 -84q-69 0 -121 32l-41 -65l-26 17l42 66q-22 18 -34 34q-61 77 -61 188q0 114 61 188q66 85 180 85q82 0 139 -44zM135 424q-52 -65 -52 -166q0 -100 52 -165q9 -12 24 -26
l245 389q-49 40 -119 40q-96 0 -150 -72zM183 48q42 -27 102 -27q93 0 150 72q52 67 52 165q0 99 -52 166q-3 4 -8 9z" />
    <glyph glyph-name="ugrave" unicode="&#xf9;" horiz-adv-x="532" 
d="M172 722h50l110 -146h-32zM64 517h39v-317q0 -88 37 -132q39 -47 121 -47q70 0 118 51t51 132v313h38v-517h-38v96q-59 -110 -176 -110q-190 0 -190 213v318z" />
    <glyph glyph-name="uacute" unicode="&#xfa;" horiz-adv-x="532" 
d="M311 722h51l-128 -146h-32zM64 517h39v-317q0 -88 37 -132q39 -47 121 -47q70 0 118 51t51 132v313h38v-517h-38v96q-59 -110 -176 -110q-190 0 -190 213v318z" />
    <glyph glyph-name="ucircumflex" unicode="&#xfb;" horiz-adv-x="532" 
d="M252 716h28l114 -127h-34l-94 102l-95 -102h-34zM64 517h39v-317q0 -88 37 -132q39 -47 121 -47q70 0 118 51t51 132v313h38v-517h-38v96q-59 -110 -176 -110q-190 0 -190 213v318z" />
    <glyph glyph-name="udieresis" unicode="&#xfc;" horiz-adv-x="532" 
d="M370 676q8 -10 8 -25q0 -14 -8 -24q-10 -8 -25 -8q-14 0 -24 8q-8 8 -8 24q0 17 8 25t24 8q17 0 25 -8zM212 676q8 -10 8 -25q0 -14 -8 -24q-10 -8 -25 -8q-14 0 -24 8q-8 8 -8 24q0 17 8 25t24 8q17 0 25 -8zM64 517h39v-317q0 -88 37 -132q39 -47 121 -47q70 0 118 51
t51 132v313h38v-517h-38v96q-59 -110 -176 -110q-190 0 -190 213v318z" />
    <glyph glyph-name="yacute" unicode="&#xfd;" horiz-adv-x="459" 
d="M308 722h50l-128 -146h-32zM5 517h43l182 -456l180 456h44l-287 -715h-43l86 211z" />
    <glyph glyph-name="thorn" unicode="&#xfe;" horiz-adv-x="566" 
d="M64 714h37v-318q59 135 192 135q109 0 172 -84q57 -75 57 -189q0 -113 -56 -189q-62 -83 -172 -83q-137 0 -191 136v-320h-39v912zM149 425q-47 -62 -47 -164v-12q0 -99 48 -162q51 -66 140 -66q94 0 146 69q47 65 47 168t-48 166q-51 72 -144 72q-92 0 -142 -71z" />
    <glyph glyph-name="ydieresis" unicode="&#xff;" horiz-adv-x="459" 
d="M333 676q8 -10 8 -25q0 -14 -8 -24q-10 -8 -25 -8q-14 0 -24 8q-8 8 -8 24q0 17 8 25t24 8q17 0 25 -8zM175 676q8 -10 8 -25q0 -14 -8 -24q-10 -8 -25 -8q-16 0 -24 8t-8 24q0 17 8 25q7 8 24 8t25 -8zM5 517h43l182 -456l180 456h44l-287 -715h-43l86 211z" />
    <glyph glyph-name="Amacron" unicode="&#x100;" horiz-adv-x="629" 
d="M174 840h282v-28h-282v28zM291 714h48l290 -714h-43l-90 226h-361l-91 -226h-44zM149 262h333l-165 410h-3z" />
    <glyph glyph-name="amacron" unicode="&#x101;" horiz-adv-x="543" 
d="M131 663h282v-28h-282v28zM435 471q44 -50 44 -137v-334h-37v111q-32 -46 -87 -83q-66 -42 -143 -42q-74 0 -121 38q-47 40 -47 106q0 99 83 143q64 35 175 35l139 1v21q0 166 -165 166q-74 0 -119 -33q-50 -35 -59 -100h-38q12 84 71 127q54 41 146 41q106 0 158 -60z
M441 275l-138 -1q-220 -1 -220 -145q0 -49 37 -79q37 -29 99 -29q84 0 155 59q67 59 67 120v75z" />
    <glyph glyph-name="Abreve" unicode="&#x102;" horiz-adv-x="629" 
d="M202 894q17 -104 113 -104q95 0 113 104h27q-18 -131 -140 -131q-125 0 -140 131h27zM291 714h48l290 -714h-43l-90 226h-361l-91 -226h-44zM149 262h333l-165 410h-3z" />
    <glyph glyph-name="abreve" unicode="&#x103;" horiz-adv-x="543" 
d="M159 717q17 -104 113 -104q95 0 113 104h27q-18 -131 -140 -131q-125 0 -140 131h27zM435 471q44 -50 44 -137v-334h-37v111q-32 -46 -87 -83q-66 -42 -143 -42q-74 0 -121 38q-47 40 -47 106q0 99 83 143q64 35 175 35l139 1v21q0 166 -165 166q-74 0 -119 -33
q-50 -35 -59 -100h-38q12 84 71 127q54 41 146 41q106 0 158 -60zM441 275l-138 -1q-220 -1 -220 -145q0 -49 37 -79q37 -29 99 -29q84 0 155 59q67 59 67 120v75z" />
    <glyph glyph-name="Aogonek" unicode="&#x104;" horiz-adv-x="629" 
d="M291 714h48l290 -714h-13q-61 -80 -61 -131q0 -55 56 -55q44 0 95 39l13 -20q-55 -45 -111 -45q-82 0 -82 79q0 28 18 65q16 34 42 68l-90 226h-361l-91 -226h-44zM149 262h333l-165 410h-3z" />
    <glyph glyph-name="aogonek" unicode="&#x105;" horiz-adv-x="543" 
d="M435 471q44 -50 44 -137v-334h-9q-62 -81 -62 -131q0 -55 55 -55q44 0 95 39l13 -20q-54 -45 -111 -45q-82 0 -82 79q0 30 20 67q15 29 44 70v107q-32 -46 -87 -83q-66 -42 -143 -42q-74 0 -121 38q-47 40 -47 106q0 99 83 143q64 35 175 35l139 1v21q0 166 -165 166
q-74 0 -119 -33q-50 -35 -59 -100h-38q12 84 71 127q54 41 146 41q106 0 158 -60zM441 275l-138 -1q-220 -1 -220 -145q0 -49 37 -79q37 -29 99 -29q84 0 155 59q67 59 67 120v75z" />
    <glyph glyph-name="dcaron" unicode="&#x10f;" horiz-adv-x="684" 
d="M629 728h46l-14 -189h-33zM463 728h39v-728h-37v121q-54 -135 -193 -135q-110 0 -172 83q-56 74 -56 189q0 114 57 189q62 84 170 84q138 0 192 -138v335zM131 425q-48 -63 -48 -167t47 -167q52 -70 145 -70q91 0 142 68q47 64 47 161v13q0 101 -48 165q-52 68 -140 68
q-95 0 -145 -71z" />
    <glyph glyph-name="dcroat" unicode="&#x111;" horiz-adv-x="610" 
d="M273 633h190v95h39v-95h108v-31h-108v-602h-37v121q-54 -135 -193 -135q-110 0 -172 83q-56 74 -56 189q0 114 57 189q62 84 170 84q138 0 192 -138v209h-190v31zM131 425q-48 -63 -48 -167t47 -167q52 -70 145 -70q91 0 142 68q47 64 47 161v13q0 101 -48 165
q-52 68 -140 68q-95 0 -145 -71z" />
    <glyph glyph-name="emacron" unicode="&#x113;" horiz-adv-x="540" 
d="M130 663h281v-28h-281v28zM449 449q51 -70 57 -203h-432q3 -104 55 -163q54 -62 141 -62q77 0 126 43q40 37 58 102h41q-18 -75 -68 -124q-62 -56 -157 -56q-108 0 -171 75q-65 75 -65 198q0 113 62 190q66 82 173 82q120 0 180 -82zM132 435q-52 -61 -58 -155h392
q-16 216 -196 216q-86 0 -138 -61z" />
    <glyph glyph-name="ebreve" unicode="&#x115;" horiz-adv-x="540" 
d="M158 717q15 -104 113 -104q95 0 113 104h26q-17 -131 -139 -131q-125 0 -140 131h27zM449 449q51 -70 57 -203h-432q3 -104 55 -163q54 -62 141 -62q77 0 126 43q40 37 58 102h41q-18 -75 -68 -124q-62 -56 -157 -56q-108 0 -171 75q-65 75 -65 198q0 113 62 190
q66 82 173 82q120 0 180 -82zM132 435q-52 -61 -58 -155h392q-16 216 -196 216q-86 0 -138 -61z" />
    <glyph glyph-name="edotaccent" unicode="&#x117;" horiz-adv-x="540" 
d="M294 676q9 -9 9 -25q0 -15 -9 -24q-10 -8 -24 -8q-16 0 -24 8q-9 9 -9 24q0 16 9 25q7 8 24 8q16 0 24 -8zM449 449q51 -70 57 -203h-432q3 -104 55 -163q54 -62 141 -62q77 0 126 43q40 37 58 102h41q-18 -75 -68 -124q-62 -56 -157 -56q-108 0 -171 75q-65 75 -65 198
q0 113 62 190q66 82 173 82q120 0 180 -82zM132 435q-52 -61 -58 -155h392q-16 216 -196 216q-86 0 -138 -61z" />
    <glyph glyph-name="eogonek" unicode="&#x119;" horiz-adv-x="540" 
d="M449 449q51 -70 57 -203h-432q3 -104 55 -163q54 -62 141 -62q77 0 126 43q40 37 58 102h41q-22 -94 -96 -145q-34 -23 -62 -71q-27 -46 -27 -81q0 -55 56 -55q44 0 95 39l13 -20q-54 -45 -111 -45q-82 0 -82 79q0 52 54 127q-34 -8 -65 -8q-108 0 -171 75
q-65 75 -65 198q0 113 62 190q66 82 173 82q120 0 180 -82zM132 435q-52 -61 -58 -155h392q-16 216 -196 216q-86 0 -138 -61z" />
    <glyph glyph-name="ecaron" unicode="&#x11b;" horiz-adv-x="540" 
d="M142 716h34l95 -102l94 102h34l-115 -127h-27zM449 449q51 -70 57 -203h-432q3 -104 55 -163q54 -62 141 -62q77 0 126 43q40 37 58 102h41q-18 -75 -68 -124q-62 -56 -157 -56q-108 0 -171 75q-65 75 -65 198q0 113 62 190q66 82 173 82q120 0 180 -82zM132 435
q-52 -61 -58 -155h392q-16 216 -196 216q-86 0 -138 -61z" />
    <glyph glyph-name="gcircumflex" unicode="&#x11d;" horiz-adv-x="577" 
d="M275 716h28l115 -127h-34l-95 102l-94 -102h-34zM474 397v120h39v-477q0 -252 -227 -252q-100 0 -154 45q-52 43 -64 123h38q12 -63 52 -96q46 -37 128 -37q188 0 188 214v108q-57 -133 -198 -133q-109 0 -174 79q-58 73 -58 180q0 109 58 180q64 80 174 80
q141 0 198 -134zM133 428q-50 -60 -50 -157q0 -92 48 -155q53 -69 148 -69q91 0 146 67q49 64 49 157q0 94 -49 157q-53 68 -146 68q-94 0 -146 -68z" />
    <glyph glyph-name="gbreve" unicode="&#x11f;" horiz-adv-x="577" 
d="M176 717q17 -104 113 -104q95 0 113 104h27q-17 -131 -140 -131t-140 131h27zM474 397v120h39v-477q0 -252 -227 -252q-100 0 -154 45q-52 43 -64 123h38q12 -63 52 -96q46 -37 128 -37q188 0 188 214v108q-57 -133 -198 -133q-109 0 -174 79q-58 73 -58 180
q0 109 58 180q64 80 174 80q141 0 198 -134zM133 428q-50 -60 -50 -157q0 -92 48 -155q53 -69 148 -69q91 0 146 67q49 64 49 157q0 94 -49 157q-53 68 -146 68q-94 0 -146 -68z" />
    <glyph glyph-name="gdotaccent" unicode="&#x121;" horiz-adv-x="577" 
d="M305 676q9 -9 9 -25q0 -15 -9 -24q-10 -8 -24 -8q-16 0 -24 8q-9 9 -9 24q0 16 9 25q7 8 24 8q16 0 24 -8zM474 397v120h39v-477q0 -252 -227 -252q-100 0 -154 45q-52 43 -64 123h38q12 -63 52 -96q46 -37 128 -37q188 0 188 214v108q-57 -133 -198 -133q-109 0 -174 79
q-58 73 -58 180q0 109 58 180q64 80 174 80q141 0 198 -134zM133 428q-50 -60 -50 -157q0 -92 48 -155q53 -69 148 -69q91 0 146 67q49 64 49 157q0 94 -49 157q-53 68 -146 68q-94 0 -146 -68z" />
    <glyph glyph-name="uni0123" unicode="&#x123;" horiz-adv-x="577" 
d="M306 761h35l-39 -185h-45zM474 397v120h39v-477q0 -252 -227 -252q-100 0 -154 45q-52 43 -64 123h38q12 -63 52 -96q46 -37 128 -37q188 0 188 214v108q-57 -133 -198 -133q-109 0 -174 79q-58 73 -58 180q0 109 58 180q64 80 174 80q141 0 198 -134zM133 428
q-50 -60 -50 -157q0 -92 48 -155q53 -69 148 -69q91 0 146 67q49 64 49 157q0 94 -49 157q-53 68 -146 68q-94 0 -146 -68z" />
    <glyph glyph-name="hcircumflex" unicode="&#x125;" horiz-adv-x="532" 
d="M251 893h28l115 -127h-34l-95 102l-94 -102h-34zM64 728h39v-315q27 55 74 87q44 31 102 31q86 0 137 -51q51 -52 51 -147v-333h-38v330q0 79 -43 124q-42 42 -114 42q-69 0 -118 -56q-51 -57 -51 -138v-302h-39v728z" />
    <glyph glyph-name="Hbar" unicode="&#x126;" horiz-adv-x="743" 
d="M5 590h90v124h39v-124h476v124h38v-124h90v-31h-90v-559h-38v353h-476v-353h-39v559h-90v31zM134 559v-170h476v170h-476z" />
    <glyph glyph-name="hbar" unicode="&#x127;" horiz-adv-x="581" 
d="M113 728h39v-96h191v-30h-191v-189q27 56 75 87q44 31 101 31q86 0 137 -51q51 -52 51 -147v-333h-38v330q0 79 -43 124q-42 42 -114 42q-69 0 -118 -56q-51 -55 -51 -138v-302h-39v602h-108v30h108v96z" />
    <glyph glyph-name="Itilde" unicode="&#x128;" horiz-adv-x="212" 
d="M108 844q45 -28 63 -28q31 0 56 43l23 -14q-30 -57 -78 -57q-25 0 -70 28q-43 29 -62 29q-29 0 -56 -42l-22 15q33 55 78 55q24 0 68 -29zM87 714h39v-714h-39v714z" />
    <glyph glyph-name="itilde" unicode="&#x129;" horiz-adv-x="234" 
d="M119 666q44 -29 63 -29q31 0 56 43l23 -14q-30 -57 -78 -57q-25 0 -71 29q-43 28 -61 28q-30 0 -56 -42l-22 14q32 56 78 56q24 0 68 -28zM98 517h38v-517h-38v517z" />
    <glyph glyph-name="imacron" unicode="&#x12b;" horiz-adv-x="234" 
d="M-24 663h282v-28h-282v28zM98 517h38v-517h-38v517z" />
    <glyph glyph-name="iogonek" unicode="&#x12f;" horiz-adv-x="234" 
d="M145 681q12 -10 12 -28q0 -16 -12 -28t-28 -12q-17 0 -28 12q-12 12 -12 28q0 18 12 28q11 12 28 12q16 0 28 -12zM98 517h38v-518h-6q-60 -78 -60 -130q0 -55 56 -55q44 0 95 39l13 -20q-54 -45 -111 -45q-82 0 -82 79q0 29 20 66q14 30 43 66h-6v518z" />
    <glyph glyph-name="dotlessi" unicode="&#x131;" horiz-adv-x="234" 
d="M98 517h38v-517h-38v517z" />
    <glyph glyph-name="IJ" unicode="&#x132;" horiz-adv-x="754" 
d="M641 714h39v-489q0 -109 -43 -170q-51 -69 -163 -69q-90 0 -142 50q-55 54 -55 157v28h39v-27q0 -171 159 -171q88 0 128 52q38 50 38 151v488zM87 714h39v-714h-39v714z" />
    <glyph glyph-name="ij" unicode="&#x133;" horiz-adv-x="498" 
d="M410 681q11 -11 11 -28q0 -15 -11 -28q-12 -12 -29 -12t-29 12q-11 11 -11 28q0 18 11 28q12 12 29 12t29 -12zM145 681q12 -10 12 -28q0 -16 -12 -28t-28 -12q-17 0 -28 12q-12 12 -12 28q0 18 12 28q11 12 28 12q16 0 28 -12zM362 517h38v-593q0 -122 -124 -122h-48v35
h46q88 0 88 88v592zM98 517h38v-517h-38v517z" />
    <glyph glyph-name="jcircumflex" unicode="&#x135;" horiz-adv-x="255" 
d="M123 716h28l115 -127h-34l-95 102l-94 -102h-34zM119 517h38v-593q0 -122 -125 -122h-47v35h46q88 0 88 88v592z" />
    <glyph glyph-name="uni0137" unicode="&#x137;" horiz-adv-x="499" 
d="M64 728h39v-494l317 283h56l-227 -201l250 -316h-51l-227 290l-118 -106v-184h-39v728zM239 -26h45l-50 -185h-34z" />
    <glyph glyph-name="kgreenlandic" unicode="&#x138;" horiz-adv-x="499" 
d="M64 517h39v-283l317 283h56l-227 -201l250 -316h-51l-227 290l-118 -106v-184h-39v517z" />
    <glyph glyph-name="lacute" unicode="&#x13a;" horiz-adv-x="212" 
d="M166 901h51l-128 -146h-32zM87 728h38v-728h-38v728z" />
    <glyph glyph-name="uni013C" unicode="&#x13c;" horiz-adv-x="212" 
d="M87 728h38v-728h-38v728zM85 -26h45l-50 -185h-34z" />
    <glyph glyph-name="lcaron" unicode="&#x13e;" horiz-adv-x="306" 
d="M252 728h45l-14 -189h-32zM87 728h38v-728h-38v728z" />
    <glyph glyph-name="ldot" unicode="&#x140;" horiz-adv-x="320" 
d="M292 384q8 -10 8 -24t-8 -24q-9 -9 -24 -9q-16 0 -24 9q-9 9 -9 24t9 24q7 8 24 8q16 0 24 -8zM87 728h38v-728h-38v728z" />
    <glyph glyph-name="lslash" unicode="&#x142;" horiz-adv-x="271" 
d="M117 728h38v-346l103 49l13 -27l-116 -55v-349h-38v331l-104 -49l-13 27l117 55v364z" />
    <glyph glyph-name="nacute" unicode="&#x144;" horiz-adv-x="532" 
d="M312 722h50l-128 -146h-32zM468 317v-317h-39v316q0 180 -158 180q-70 0 -117 -51q-48 -49 -51 -132v-313h-39v517h39v-94q23 48 70 79q45 29 104 29q191 0 191 -214z" />
    <glyph glyph-name="uni0146" unicode="&#x146;" horiz-adv-x="532" 
d="M468 317v-317h-39v316q0 180 -158 180q-70 0 -117 -51q-48 -49 -51 -132v-313h-39v517h39v-94q23 48 70 79q45 29 104 29q191 0 191 -214zM242 -26h46l-50 -185h-34z" />
    <glyph glyph-name="ncaron" unicode="&#x148;" horiz-adv-x="532" 
d="M138 716h35l94 -102l95 102h34l-115 -127h-28zM468 317v-317h-39v316q0 180 -158 180q-70 0 -117 -51q-48 -49 -51 -132v-313h-39v517h39v-94q23 48 70 79q45 29 104 29q191 0 191 -214z" />
    <glyph glyph-name="napostrophe" unicode="&#x149;" horiz-adv-x="627" 
d="M21 728h45l-14 -189h-32zM563 317v-317h-40v316q0 180 -158 180q-69 0 -117 -51q-48 -49 -51 -132v-313h-38v517h38v-94q23 48 71 79q44 29 103 29q192 0 192 -214z" />
    <glyph glyph-name="Eng" unicode="&#x14a;" horiz-adv-x="695" 
d="M70 714h50l464 -650h2v650h39v-790q0 -122 -125 -122h-50v35h48q88 0 88 88v76l-475 664h-2v-665h-39v714z" />
    <glyph glyph-name="eng" unicode="&#x14b;" horiz-adv-x="532" 
d="M468 317v-393q0 -122 -125 -122h-47v35h46q87 0 87 88v391q0 180 -158 180q-70 0 -117 -51q-48 -49 -51 -132v-313h-39v517h39v-94q23 48 70 79q45 29 104 29q191 0 191 -214z" />
    <glyph glyph-name="omacron" unicode="&#x14d;" horiz-adv-x="570" 
d="M144 663h282v-28h-282v28zM465 446q61 -76 61 -188q0 -109 -61 -188q-67 -84 -180 -84q-114 0 -180 84q-61 77 -61 188q0 114 61 188q66 85 180 85q113 0 180 -85zM135 424q-52 -65 -52 -166q0 -100 52 -165q54 -72 150 -72q93 0 150 72q52 67 52 165q0 99 -52 166
q-57 72 -150 72q-96 0 -150 -72z" />
    <glyph glyph-name="OE" unicode="&#x152;" horiz-adv-x="998" 
d="M493 714h456v-36h-417v-289h394v-36h-394v-317h434v-36h-473v48q-73 -62 -173 -62q-136 0 -218 109q-78 104 -78 263q0 160 78 262q81 108 218 108q102 0 173 -62v48zM493 613q-66 78 -174 78q-120 0 -190 -95q-68 -92 -68 -238q0 -147 68 -239q71 -96 190 -96
q111 0 174 77v513z" />
    <glyph glyph-name="oe" unicode="&#x153;" horiz-adv-x="930" 
d="M835 447q47 -70 51 -201h-398q3 -104 52 -163q48 -62 128 -62q71 0 116 43q33 36 51 102h41q-18 -76 -63 -124q-58 -56 -145 -56q-99 0 -159 75q-28 33 -43 78q-14 -37 -39 -71q-64 -82 -161 -82q-101 0 -163 82q-59 77 -59 190q0 114 59 191q63 82 163 82q98 0 161 -82
q26 -36 40 -73q14 39 39 72q61 83 161 83q113 0 168 -84zM542 435q-49 -62 -53 -155h357q-15 216 -178 216q-78 0 -126 -61zM134 428q-51 -67 -51 -170q0 -100 51 -169q51 -68 132 -68q80 0 130 68q51 69 51 169q0 103 -51 170q-49 68 -130 68q-82 0 -132 -68z" />
    <glyph glyph-name="Tbar" unicode="&#x166;" horiz-adv-x="623" 
d="M19 714h585v-36h-272v-329h174v-31h-174v-318h-39v318h-176v31h176v329h-274v36z" />
    <glyph glyph-name="Utilde" unicode="&#x168;" horiz-adv-x="689" 
d="M347 844q45 -28 63 -28q31 0 56 43l23 -14q-30 -57 -78 -57q-25 0 -70 28q-43 29 -62 29q-29 0 -56 -42l-22 15q33 55 78 55q24 0 68 -29zM74 714h39v-436q0 -124 53 -186q58 -70 178 -70q121 0 179 70q53 64 53 186v436h39v-435q0 -139 -63 -213q-68 -80 -208 -80
q-139 0 -207 79q-63 75 -63 214v435z" />
    <glyph glyph-name="utilde" unicode="&#x169;" horiz-adv-x="532" 
d="M269 666q43 -29 63 -29q31 0 56 43l23 -14q-30 -57 -79 -57q-26 0 -69 29q-44 28 -62 28q-30 0 -56 -42l-22 14q32 56 77 56q25 0 69 -28zM64 517h39v-317q0 -88 37 -132q39 -47 121 -47q70 0 118 51t51 132v313h38v-517h-38v96q-59 -110 -176 -110q-190 0 -190 213v318z
" />
    <glyph glyph-name="Umacron" unicode="&#x16a;" horiz-adv-x="689" 
d="M204 840h282v-28h-282v28zM74 714h39v-436q0 -124 53 -186q58 -70 178 -70q121 0 179 70q53 64 53 186v436h39v-435q0 -139 -63 -213q-68 -80 -208 -80q-139 0 -207 79q-63 75 -63 214v435z" />
    <glyph glyph-name="umacron" unicode="&#x16b;" horiz-adv-x="532" 
d="M126 663h282v-28h-282v28zM64 517h39v-317q0 -88 37 -132q39 -47 121 -47q70 0 118 51t51 132v313h38v-517h-38v96q-59 -110 -176 -110q-190 0 -190 213v318z" />
    <glyph glyph-name="Ubreve" unicode="&#x16c;" horiz-adv-x="689" 
d="M232 894q17 -104 113 -104q95 0 113 104h27q-17 -131 -140 -131t-140 131h27zM74 714h39v-436q0 -124 53 -186q58 -70 178 -70q121 0 179 70q53 64 53 186v436h39v-435q0 -139 -63 -213q-68 -80 -208 -80q-139 0 -207 79q-63 75 -63 214v435z" />
    <glyph glyph-name="ubreve" unicode="&#x16d;" horiz-adv-x="532" 
d="M154 717q17 -104 113 -104q95 0 113 104h27q-18 -131 -140 -131q-125 0 -140 131h27zM64 517h39v-317q0 -88 37 -132q39 -47 121 -47q70 0 118 51t51 132v313h38v-517h-38v96q-59 -110 -176 -110q-190 0 -190 213v318z" />
    <glyph glyph-name="Uring" unicode="&#x16e;" horiz-adv-x="689" 
d="M403 883q24 -25 24 -59t-24 -58t-58 -24t-58 24q-25 24 -25 58t25 59q24 24 58 24t58 -24zM74 714h39v-436q0 -124 53 -186q58 -70 178 -70q121 0 179 70q53 64 53 186v436h39v-435q0 -139 -63 -213q-68 -80 -208 -80q-139 0 -207 79q-63 75 -63 214v435zM303 866
q-17 -16 -17 -42q0 -24 17 -41t42 -17q23 0 41 16q18 18 18 42q0 26 -18 42q-19 17 -41 17q-25 0 -42 -17z" />
    <glyph glyph-name="uring" unicode="&#x16f;" horiz-adv-x="532" 
d="M325 710q24 -24 24 -59q0 -34 -24 -58t-58 -24q-35 0 -59 24t-24 58q0 35 24 59t59 24q34 0 58 -24zM64 517h39v-317q0 -88 37 -132q39 -47 121 -47q70 0 118 51t51 132v313h38v-517h-38v96q-59 -110 -176 -110q-190 0 -190 213v318zM225 693q-18 -16 -18 -42
q0 -23 18 -41q17 -17 42 -17q23 0 42 17q16 18 16 41q0 25 -17 42t-41 17q-26 0 -42 -17z" />
    <glyph glyph-name="Uhungarumlaut" unicode="&#x170;" horiz-adv-x="689" 
d="M461 901h51l-126 -146h-32zM301 901h50l-126 -146h-31zM74 714h39v-436q0 -124 53 -186q58 -70 178 -70q121 0 179 70q53 64 53 186v436h39v-435q0 -139 -63 -213q-68 -80 -208 -80q-139 0 -207 79q-63 75 -63 214v435z" />
    <glyph glyph-name="uhungarumlaut" unicode="&#x171;" horiz-adv-x="532" 
d="M412 722h50l-126 -146h-32zM252 722h50l-126 -146h-32zM64 517h39v-317q0 -88 37 -132q39 -47 121 -47q70 0 118 51t51 132v313h38v-517h-38v96q-59 -110 -176 -110q-190 0 -190 213v318z" />
    <glyph glyph-name="Uogonek" unicode="&#x172;" horiz-adv-x="689" 
d="M74 714h39v-436q0 -124 53 -186q58 -70 178 -70q121 0 179 70q53 64 53 186v436h39v-435q0 -139 -63 -213t-188 -80q-51 -72 -51 -117q0 -55 56 -55q44 0 95 39l13 -20q-55 -45 -111 -45q-82 0 -82 79q0 32 20 69q11 25 30 50q-130 3 -197 79q-63 75 -63 214v435z" />
    <glyph glyph-name="uogonek" unicode="&#x173;" horiz-adv-x="532" 
d="M64 517h39v-317q0 -88 37 -132q39 -47 121 -47q70 0 118 51t51 132v313h38v-517h-11q-62 -81 -62 -131q0 -55 56 -55q44 0 95 39l13 -20q-54 -45 -111 -45q-82 0 -82 79q0 31 20 68q14 32 44 69v92q-59 -110 -176 -110q-190 0 -190 213v318z" />
    <glyph glyph-name="Wcircumflex" unicode="&#x174;" horiz-adv-x="903" 
d="M438 893h28l114 -127h-34l-94 102l-95 -102h-34zM5 714h44l185 -667h3l189 667h51l188 -667h4l185 667h44l-206 -714h-50l-189 665h-3l-190 -665h-50z" />
    <glyph glyph-name="wcircumflex" unicode="&#x175;" horiz-adv-x="728" 
d="M351 716h28l114 -127h-34l-95 102l-94 -102h-34zM5 517h43l155 -463l141 463h40l141 -463l155 463h43l-179 -517h-38l-141 463l-143 -463h-38z" />
    <glyph glyph-name="Ycircumflex" unicode="&#x176;" horiz-adv-x="626" 
d="M299 893h28l115 -127h-34l-95 102l-94 -102h-34zM5 714h49l259 -380l260 380h48l-288 -417v-297h-39v297z" />
    <glyph glyph-name="ycircumflex" unicode="&#x177;" horiz-adv-x="459" 
d="M216 716h27l115 -127h-34l-95 102l-94 -102h-34zM5 517h43l182 -456l180 456h44l-287 -715h-43l86 211z" />
    <glyph glyph-name="Ydieresis" unicode="&#x178;" horiz-adv-x="626" 
d="M416 848q9 -7 9 -24q0 -15 -9 -24t-24 -9q-16 0 -24 9q-9 9 -9 24q0 17 9 24q8 9 24 9q15 0 24 -9zM258 848q9 -7 9 -24q0 -15 -9 -24t-24 -9q-16 0 -24 9q-9 9 -9 24q0 17 9 24q8 9 24 9q15 0 24 -9zM5 714h49l259 -380l260 380h48l-288 -417v-297h-39v297z" />
    <glyph glyph-name="Zacute" unicode="&#x179;" horiz-adv-x="605" 
d="M347 901h50l-128 -146h-32zM55 714h501v-38l-482 -640h506v-36h-555v37l483 641h-453v36z" />
    <glyph glyph-name="zacute" unicode="&#x17a;" horiz-adv-x="465" 
d="M288 722h51l-128 -146h-32zM35 517h389v-35l-351 -447h367v-35h-415v35l352 447h-342v35z" />
    <glyph glyph-name="Zdotaccent" unicode="&#x17b;" horiz-adv-x="605" 
d="M327 848q9 -7 9 -24q0 -15 -9 -24t-25 -9q-15 0 -24 9q-8 8 -8 24q0 17 8 24q9 9 24 9q16 0 25 -9zM55 714h501v-38l-482 -640h506v-36h-555v37l483 641h-453v36z" />
    <glyph glyph-name="zdotaccent" unicode="&#x17c;" horiz-adv-x="465" 
d="M257 676q8 -10 8 -25q0 -14 -8 -24q-10 -8 -25 -8q-14 0 -24 8q-8 8 -8 24q0 17 8 25t24 8t25 -8zM35 517h389v-35l-351 -447h367v-35h-415v35l352 447h-342v35z" />
    <glyph glyph-name="Zcaron" unicode="&#x17d;" horiz-adv-x="605" 
d="M175 893h34l94 -102l95 102h34l-115 -127h-28zM55 714h501v-38l-482 -640h506v-36h-555v37l483 641h-453v36z" />
    <glyph glyph-name="zcaron" unicode="&#x17e;" horiz-adv-x="465" 
d="M104 716h34l95 -102l94 102h34l-114 -127h-28zM35 517h389v-35l-351 -447h367v-35h-415v35l352 447h-342v35z" />
    <glyph glyph-name="longs" unicode="&#x17f;" horiz-adv-x="367" 
d="M362 714v-36h-84q-47 0 -67 -23q-20 -21 -20 -75v-580h-38v482h-148v35h148v63q0 66 29 98q30 36 94 36h86z" />
    <glyph glyph-name="uni018F" unicode="&#x18f;" horiz-adv-x="720" 
d="M599 619q77 -98 77 -258q0 -163 -80 -266q-88 -109 -246 -109q-143 0 -228 109q-78 101 -78 246v32h593q-3 137 -66 220q-74 98 -216 98q-98 0 -163 -48q-70 -52 -91 -154h-40q23 118 102 179q77 60 191 60q158 0 245 -109zM83 337q0 -131 70 -220q74 -94 197 -94
q144 0 220 102q61 84 67 212h-554z" />
    <glyph glyph-name="florin" unicode="&#x192;" horiz-adv-x="569" 
d="M555 714l-6 -36h-84q-48 0 -71 -23q-25 -22 -34 -75l-10 -63h164l-6 -35h-165l-96 -546q-12 -65 -46 -97q-39 -37 -101 -37h-86l6 36h84q46 0 71 23q25 25 34 75l96 546h-147l6 35h147l11 63q11 66 46 98q36 36 101 36h86z" />
    <glyph glyph-name="Ohorn" unicode="&#x1a0;" horiz-adv-x="759" 
d="M699 814h35v-60q0 -50 -27 -76q-28 -23 -73 -23h-44q123 -102 123 -298q0 -159 -86 -263q-93 -108 -248 -108q-157 0 -248 109q-87 102 -87 262q0 161 88 262q91 109 248 109q66 0 130 -20q66 -21 89 -21h27q73 0 73 67v60zM160 595q-77 -92 -77 -238q0 -148 77 -238
q81 -96 219 -96q137 0 218 96q77 92 77 238q0 147 -77 238q-81 96 -218 96q-138 0 -219 -96z" />
    <glyph glyph-name="ohorn" unicode="&#x1a1;" horiz-adv-x="589" 
d="M529 625h36v-54q0 -54 -28 -79q-21 -18 -55 -18h-39l-2 -3q85 -77 85 -213q0 -109 -61 -188q-67 -84 -180 -84q-114 0 -180 84q-61 77 -61 188q0 113 62 188q66 85 180 85q46 0 101 -13q57 -12 82 -12q60 0 60 67v52zM134 423q-51 -66 -51 -165q0 -98 51 -164
q56 -73 151 -73q93 0 151 73q51 66 51 164q0 99 -51 165q-57 73 -151 73q-96 0 -151 -73z" />
    <glyph glyph-name="uni01A2" unicode="&#x1a2;" horiz-adv-x="926" 
d="M839 701v-899h-39v845q-67 -52 -182 -87q43 -88 43 -203q0 -159 -80 -262q-86 -109 -229 -109t-228 109q-80 101 -80 262t80 262q84 109 228 109t229 -109l17 -25q62 20 113 43q69 34 97 64h31zM152 595q-69 -91 -69 -238q0 -146 69 -238q72 -96 200 -96q126 0 201 96
q69 92 69 238q0 147 -69 238q-75 96 -201 96q-128 0 -200 -96z" />
    <glyph glyph-name="uni01A3" unicode="&#x1a3;" horiz-adv-x="786" 
d="M699 489v-687h-38v634q-52 -40 -150 -77q15 -45 15 -101q0 -109 -61 -188q-67 -84 -180 -84q-114 0 -180 84q-61 77 -61 188q0 114 61 188q66 85 180 85q113 0 180 -85q19 -25 33 -52q121 43 171 95h30zM135 424q-52 -65 -52 -166q0 -100 52 -165q56 -72 150 -72
q93 0 150 72q52 67 52 165q0 99 -52 166q-57 72 -150 72q-96 0 -150 -72z" />
    <glyph glyph-name="Uhorn" unicode="&#x1af;" horiz-adv-x="760" 
d="M700 839h36v-55q0 -103 -99 -103h-30v-402q0 -139 -63 -213q-69 -80 -208 -80q-140 0 -207 79q-63 75 -63 214v435h39v-436q0 -124 53 -186q58 -70 178 -70q121 0 179 70q53 64 53 186v436h60q72 0 72 69v56z" />
    <glyph glyph-name="uhorn" unicode="&#x1b0;" horiz-adv-x="603" 
d="M543 641h36v-56q0 -101 -98 -101h-13v-484h-38v96q-59 -110 -176 -110q-190 0 -190 213v318h39v-317q0 -88 37 -132q39 -47 121 -47q70 0 118 51t51 132v313h42q71 0 71 67v57z" />
    <glyph glyph-name="uni01CE" unicode="&#x1ce;" horiz-adv-x="543" 
d="M143 716h35l94 -102l95 102h34l-115 -127h-28zM435 471q44 -50 44 -137v-334h-37v111q-32 -46 -87 -83q-66 -42 -143 -42q-74 0 -121 38q-47 40 -47 106q0 99 83 143q64 35 175 35l139 1v21q0 166 -165 166q-74 0 -119 -33q-50 -35 -59 -100h-38q12 84 71 127
q54 41 146 41q106 0 158 -60zM441 275l-138 -1q-220 -1 -220 -145q0 -49 37 -79q37 -29 99 -29q84 0 155 59q67 59 67 120v75z" />
    <glyph glyph-name="uni01D0" unicode="&#x1d0;" horiz-adv-x="234" 
d="M-12 716h34l95 -102l94 102h34l-114 -127h-28zM98 517h38v-517h-38v517z" />
    <glyph glyph-name="uni01D2" unicode="&#x1d2;" horiz-adv-x="570" 
d="M156 716h34l95 -102l94 102h35l-115 -127h-28zM465 446q61 -76 61 -188q0 -109 -61 -188q-67 -84 -180 -84q-114 0 -180 84q-61 77 -61 188q0 114 61 188q66 85 180 85q113 0 180 -85zM135 424q-52 -65 -52 -166q0 -100 52 -165q54 -72 150 -72q93 0 150 72q52 67 52 165
q0 99 -52 166q-57 72 -150 72q-96 0 -150 -72z" />
    <glyph glyph-name="uni01D4" unicode="&#x1d4;" horiz-adv-x="532" 
d="M137 716h34l95 -102l94 102h34l-114 -127h-28zM64 517h39v-317q0 -88 37 -132q39 -47 121 -47q70 0 118 51t51 132v313h38v-517h-38v96q-59 -110 -176 -110q-190 0 -190 213v318z" />
    <glyph glyph-name="uni01D6" unicode="&#x1d6;" horiz-adv-x="532" 
d="M126 803h282v-28h-282v28zM212 661q8 -10 8 -25q0 -14 -8 -24q-10 -8 -25 -8q-14 0 -24 8q-8 8 -8 24q0 17 8 25t24 8q17 0 25 -8zM370 661q8 -10 8 -25q0 -14 -8 -24q-10 -8 -25 -8q-14 0 -24 8q-8 8 -8 24q0 17 8 25t24 8q17 0 25 -8zM64 517h39v-317q0 -88 37 -132
q39 -47 121 -47q70 0 118 51t51 132v313h38v-517h-38v96q-59 -110 -176 -110q-190 0 -190 213v318z" />
    <glyph glyph-name="uni01D8" unicode="&#x1d8;" horiz-adv-x="532" 
d="M353 868h50l-128 -146h-32zM212 661q8 -10 8 -25q0 -14 -8 -24q-10 -8 -25 -8q-14 0 -24 8q-8 8 -8 24q0 17 8 25t24 8q17 0 25 -8zM370 661q8 -10 8 -25q0 -14 -8 -24q-10 -8 -25 -8q-14 0 -24 8q-8 8 -8 24q0 17 8 25t24 8q17 0 25 -8zM64 517h39v-317q0 -88 37 -132
q39 -47 121 -47q70 0 118 51t51 132v313h38v-517h-38v96q-59 -110 -176 -110q-190 0 -190 213v318z" />
    <glyph glyph-name="uni01DA" unicode="&#x1da;" horiz-adv-x="532" 
d="M138 861h34l95 -102l94 102h34l-114 -127h-28zM212 661q8 -10 8 -25q0 -14 -8 -24q-10 -8 -25 -8q-14 0 -24 8q-8 8 -8 24q0 17 8 25t24 8q17 0 25 -8zM370 661q8 -10 8 -25q0 -14 -8 -24q-10 -8 -25 -8q-14 0 -24 8q-8 8 -8 24q0 17 8 25t24 8q17 0 25 -8zM64 517h39
v-317q0 -88 37 -132q39 -47 121 -47q70 0 118 51t51 132v313h38v-517h-38v96q-59 -110 -176 -110q-190 0 -190 213v318z" />
    <glyph glyph-name="uni01DC" unicode="&#x1dc;" horiz-adv-x="532" 
d="M129 868h51l109 -146h-32zM212 661q8 -10 8 -25q0 -14 -8 -24q-10 -8 -25 -8q-14 0 -24 8q-8 8 -8 24q0 17 8 25t24 8q17 0 25 -8zM370 661q8 -10 8 -25q0 -14 -8 -24q-10 -8 -25 -8q-14 0 -24 8q-8 8 -8 24q0 17 8 25t24 8q17 0 25 -8zM64 517h39v-317q0 -88 37 -132
q39 -47 121 -47q70 0 118 51t51 132v313h38v-517h-38v96q-59 -110 -176 -110q-190 0 -190 213v318z" />
    <glyph glyph-name="uni01F9" unicode="&#x1f9;" horiz-adv-x="532" 
d="M170 722h51l109 -146h-32zM468 317v-317h-39v316q0 180 -158 180q-70 0 -117 -51q-48 -49 -51 -132v-313h-39v517h39v-94q23 48 70 79q45 29 104 29q191 0 191 -214z" />
    <glyph glyph-name="uni021B" unicode="&#x21b;" horiz-adv-x="346" 
d="M174 684v-167h143v-35h-143v-373q0 -42 14 -57q12 -17 52 -17h65v-35h-68q-58 0 -81 29q-20 26 -20 80v373h-117v35h117v150zM166 -26h46l-50 -185h-34z" />
    <glyph glyph-name="uni0237" unicode="&#x237;" horiz-adv-x="255" 
d="M119 517h38v-593q0 -122 -125 -122h-47v35h46q88 0 88 88v592z" />
    <glyph glyph-name="uni0251" unicode="&#x251;" horiz-adv-x="595" 
d="M464 396h2l3 121h33v-424q0 -72 42 -72q6 0 33 5l4 -32q-26 -8 -46 -8q-37 0 -54 31q-16 27 -16 68v36h-1q-54 -135 -191 -135q-113 0 -173 83q-56 74 -56 189q0 114 57 189q63 84 172 84q131 0 191 -135zM131 424q-47 -62 -47 -166q0 -105 47 -168q51 -69 145 -69
q96 0 145 72q42 65 42 165t-45 164q-50 74 -143 74t-144 -72z" />
    <glyph glyph-name="uni0259" unicode="&#x259;" horiz-adv-x="540" 
d="M441 456q65 -76 65 -198q0 -110 -62 -189q-66 -83 -173 -83q-119 0 -180 82q-53 72 -57 203h433q-5 104 -57 164q-54 61 -140 61q-80 0 -126 -43q-40 -34 -58 -102h-40q16 78 67 124q59 56 157 56q108 0 171 -75zM74 237q15 -216 197 -216q84 0 138 62q51 62 57 154h-392
z" />
    <glyph glyph-name="uni0261" unicode="&#x261;" horiz-adv-x="577" 
d="M474 397v120h39v-477q0 -252 -227 -252q-100 0 -154 45q-52 43 -64 123h38q12 -63 52 -96q46 -37 128 -37q188 0 188 214v108q-57 -133 -198 -133q-109 0 -174 79q-58 73 -58 180q0 109 58 180q64 80 174 80q141 0 198 -134zM133 428q-50 -60 -50 -157q0 -92 48 -155
q53 -69 148 -69q91 0 146 67q49 64 49 157q0 94 -49 157q-53 68 -146 68q-94 0 -146 -68z" />
    <glyph glyph-name="uni02BB" unicode="&#x2bb;" horiz-adv-x="500" 
d="M301 811q-65 -43 -68 -116q3 1 13 1q19 0 30 -10q11 -9 11 -29q0 -18 -10 -30q-13 -11 -30 -11q-48 0 -48 66q0 110 85 155z" />
    <glyph glyph-name="uni02BC" unicode="&#x2bc;" horiz-adv-x="500" 
d="M301 771q0 -106 -85 -155l-17 26q65 45 68 117l-13 -1q-18 0 -30 10q-11 10 -11 28q0 21 10 30q10 11 30 11q48 0 48 -66z" />
    <glyph glyph-name="circumflex" unicode="&#x2c6;" horiz-adv-x="500" 
d="M236 893h28l115 -127h-34l-95 102l-94 -102h-34z" />
    <glyph glyph-name="caron" unicode="&#x2c7;" horiz-adv-x="500" 
d="M122 893h34l94 -102l95 102h34l-115 -127h-28z" />
    <glyph glyph-name="uni02C9" unicode="&#x2c9;" horiz-adv-x="500" 
d="M109 840h282v-28h-282v28z" />
    <glyph glyph-name="uni02CA" unicode="&#x2ca;" horiz-adv-x="500" 
d="M280 901h50l-128 -146h-32z" />
    <glyph glyph-name="uni02CB" unicode="&#x2cb;" horiz-adv-x="500" 
d="M170 901h51l109 -146h-32z" />
    <glyph glyph-name="breve" unicode="&#x2d8;" horiz-adv-x="500" 
d="M137 894q17 -104 113 -104q95 0 113 104h27q-18 -131 -140 -131q-123 0 -140 131h27z" />
    <glyph glyph-name="dotaccent" unicode="&#x2d9;" horiz-adv-x="500" 
d="M275 848q8 -8 8 -24q0 -14 -8 -24q-9 -9 -25 -9q-15 0 -24 9q-8 8 -8 24q0 17 8 24q9 9 24 9t25 -9z" />
    <glyph glyph-name="ring" unicode="&#x2da;" horiz-adv-x="500" 
d="M309 883q24 -25 24 -59t-24 -58t-58 -24q-35 0 -59 24t-24 58t24 59q24 24 59 24q34 0 58 -24zM209 866q-17 -16 -17 -42q0 -24 17 -41t42 -17q23 0 41 16q17 19 17 42q0 25 -17 42q-19 17 -41 17q-25 0 -42 -17z" />
    <glyph glyph-name="ogonek" unicode="&#x2db;" horiz-adv-x="500" 
d="M246 3q-63 -84 -63 -134q0 -55 56 -55q44 0 95 39l13 -20q-55 -45 -111 -45q-82 0 -82 79q0 32 20 69q14 32 42 67h30z" />
    <glyph glyph-name="tilde" unicode="&#x2dc;" horiz-adv-x="500" 
d="M252 844q45 -28 63 -28q31 0 56 43l23 -14q-30 -57 -78 -57q-25 0 -70 28q-43 29 -62 29q-29 0 -56 -42l-22 15q33 55 78 55q22 0 68 -29z" />
    <glyph glyph-name="hungarumlaut" unicode="&#x2dd;" horiz-adv-x="500" 
d="M359 901h50l-125 -146h-32zM198 901h50l-126 -146h-31z" />
    <glyph glyph-name="uni02EE" unicode="&#x2ee;" horiz-adv-x="500" 
d="M372 771q0 -106 -85 -155l-16 26q64 45 67 117l-13 -1q-19 0 -29 10q-12 11 -12 28q0 22 11 30q8 11 30 11q47 0 47 -66zM229 771q0 -106 -85 -155l-16 26q65 45 68 117l-14 -1q-19 0 -29 10q-11 10 -11 28q0 21 10 30q8 11 30 11q47 0 47 -66z" />
    <glyph glyph-name="gravecomb" unicode="&#x300;" horiz-adv-x="500" 
d="M170 722h51l109 -146h-32z" />
    <glyph glyph-name="acutecomb" unicode="&#x301;" horiz-adv-x="500" 
d="M280 722h50l-128 -146h-32z" />
    <glyph glyph-name="uni0302" unicode="&#x302;" horiz-adv-x="500" 
d="M236 716h28l115 -127h-34l-95 102l-94 -102h-34z" />
    <glyph glyph-name="tildecomb" unicode="&#x303;" horiz-adv-x="500" 
d="M252 666q44 -29 63 -29q31 0 56 43l23 -14q-30 -57 -78 -57q-26 0 -70 29q-44 28 -62 28q-30 0 -56 -42l-22 14q32 56 78 56q24 0 68 -28z" />
    <glyph glyph-name="uni0304" unicode="&#x304;" horiz-adv-x="500" 
d="M109 663h282v-28h-282v28z" />
    <glyph glyph-name="uni0306" unicode="&#x306;" horiz-adv-x="500" 
d="M137 717q17 -104 113 -104q95 0 113 104h27q-18 -131 -140 -131q-123 0 -140 131h27z" />
    <glyph glyph-name="uni0307" unicode="&#x307;" horiz-adv-x="500" 
d="M275 676q8 -10 8 -25q0 -14 -8 -24q-10 -8 -25 -8q-14 0 -24 8q-8 8 -8 24q0 17 8 25t24 8t25 -8z" />
    <glyph glyph-name="uni0308" unicode="&#x308;" horiz-adv-x="500" 
d="M353 676q9 -9 9 -25q0 -15 -9 -24q-10 -8 -24 -8q-16 0 -24 8q-9 9 -9 24q0 16 9 25q7 8 24 8q16 0 24 -8zM195 676q9 -9 9 -25q0 -15 -9 -24q-10 -8 -25 -8t-23 8q-9 9 -9 24q0 16 9 25q7 8 23 8q17 0 25 -8z" />
    <glyph glyph-name="hookabovecomb" unicode="&#x309;" horiz-adv-x="500" 
d="M344 661q0 -57 -91 -92l-16 19q81 29 81 73q0 50 -74 50q-47 0 -88 -17v26q45 15 89 15q99 0 99 -74z" />
    <glyph glyph-name="uni030A" unicode="&#x30a;" horiz-adv-x="500" 
d="M309 710q24 -24 24 -59q0 -34 -24 -58t-58 -24q-35 0 -59 24t-24 58q0 35 24 59t59 24q34 0 58 -24zM209 693q-17 -16 -17 -42q0 -24 17 -41t42 -17q24 0 41 17t17 41q0 25 -17 42t-41 17q-26 0 -42 -17z" />
    <glyph glyph-name="uni030B" unicode="&#x30b;" horiz-adv-x="500" 
d="M359 722h50l-125 -146h-32zM199 722h50l-126 -146h-32z" />
    <glyph glyph-name="uni030C" unicode="&#x30c;" horiz-adv-x="500" 
d="M122 716h34l94 -102l95 102h34l-115 -127h-28z" />
    <glyph glyph-name="uni030F" unicode="&#x30f;" horiz-adv-x="500" 
d="M252 722h50l107 -146h-31zM91 722h51l107 -146h-32z" />
    <glyph glyph-name="uni0311" unicode="&#x311;" horiz-adv-x="500" 
d="M390 586h-27q-18 104 -113 104q-97 0 -113 -104h-27q16 131 140 131q122 0 140 -131z" />
    <glyph glyph-name="uni031B" unicode="&#x31b;" horiz-adv-x="500" 
d="M247 761h45l-49 -185h-35z" />
    <glyph glyph-name="dotbelowcomb" unicode="&#x323;" horiz-adv-x="500" 
d="M275 -92q8 -10 8 -25q0 -14 -8 -24q-10 -8 -25 -8q-14 0 -24 8q-8 8 -8 24q0 17 8 25t24 8t25 -8z" />
    <glyph glyph-name="uni0324" unicode="&#x324;" horiz-adv-x="500" 
d="M355 -92q8 -10 8 -25q0 -14 -8 -24q-10 -8 -25 -8q-14 0 -24 8q-8 8 -8 24q0 17 8 25t24 8q17 0 25 -8zM194 -92q8 -10 8 -25q0 -14 -8 -24q-10 -8 -25 -8q-16 0 -24 8t-8 24q0 17 8 25q7 8 24 8q16 0 25 -8z" />
    <glyph glyph-name="uni0325" unicode="&#x325;" horiz-adv-x="500" 
d="M309 -58q24 -24 24 -59q0 -33 -24 -59q-25 -24 -59 -24q-35 0 -59 24q-24 26 -24 59q0 35 24 59t59 24q34 0 59 -24zM208 -74q-17 -17 -17 -43q0 -25 17 -42t42 -17q23 0 42 17q17 19 17 42q0 24 -17 43q-17 17 -42 17t-42 -17z" />
    <glyph glyph-name="uni0326" unicode="&#x326;" horiz-adv-x="500" 
d="M247 -26h45l-49 -185h-35z" />
    <glyph glyph-name="uni0327" unicode="&#x327;" horiz-adv-x="500" 
d="M234 3h27l-22 -60q8 1 20 1q38 0 62 -15q28 -19 28 -57q0 -40 -34 -65q-32 -19 -71 -19q-50 0 -93 23l11 22q42 -21 78 -21t59 17q21 17 21 42q0 49 -70 49q-16 0 -48 -3z" />
    <glyph glyph-name="uni0328" unicode="&#x328;" horiz-adv-x="500" 
d="M246 3q-63 -84 -63 -134q0 -55 56 -55q44 0 95 39l13 -20q-55 -45 -111 -45q-82 0 -82 79q0 32 20 69q14 32 42 67h30z" />
    <glyph glyph-name="uni032D" unicode="&#x32d;" horiz-adv-x="500" 
d="M236 -59h28l115 -127h-34l-95 102l-94 -102h-34z" />
    <glyph glyph-name="uni032E" unicode="&#x32e;" horiz-adv-x="500" 
d="M137 -57q17 -104 113 -104q95 0 113 104h27q-18 -131 -140 -131q-123 0 -140 131h27z" />
    <glyph glyph-name="uni0330" unicode="&#x330;" horiz-adv-x="500" 
d="M252 -114q45 -28 63 -28q31 0 56 43l23 -14q-30 -57 -78 -57q-25 0 -70 28q-43 29 -62 29q-30 0 -56 -42l-22 14q32 56 78 56q25 0 68 -29z" />
    <glyph glyph-name="uni0331" unicode="&#x331;" horiz-adv-x="500" 
d="M109 -110h282v-28h-282v28z" />
    <glyph glyph-name="uni0338" unicode="&#x338;" horiz-adv-x="500" 
d="M405 529l25 -15l-336 -528l-24 15z" />
    <glyph glyph-name="uni0340" unicode="&#x340;" horiz-adv-x="500" 
d="M170 722h51l109 -146h-32z" />
    <glyph glyph-name="uni0341" unicode="&#x341;" horiz-adv-x="500" 
d="M280 722h50l-128 -146h-32z" />
    <glyph glyph-name="uni0344" unicode="&#x344;" horiz-adv-x="500" 
d="M337 868h50l-128 -146h-32zM353 661q9 -9 9 -25q0 -15 -9 -24q-10 -8 -24 -8q-16 0 -24 8q-9 9 -9 24q0 16 9 25q7 8 24 8q16 0 24 -8zM195 661q9 -9 9 -25q0 -15 -9 -24q-10 -8 -24 -8q-16 0 -24 8q-9 9 -9 24q0 16 9 25q7 8 24 8q16 0 24 -8z" />
    <glyph glyph-name="uni037E" unicode="&#x37e;" horiz-adv-x="251" 
d="M154 575q11 -11 11 -28q0 -16 -12 -28t-28 -12q-17 0 -28 12q-12 12 -12 28q0 18 12 28q11 12 28 12t29 -12zM173 155q0 -108 -85 -155l-17 26q65 45 68 116l-13 -1q-18 0 -30 10q-11 10 -11 29q0 21 10 31q11 10 30 10q48 0 48 -66z" />
    <glyph glyph-name="tonos" unicode="&#x384;" horiz-adv-x="500" 
d="M280 868h50l-128 -146h-32z" />
    <glyph glyph-name="dieresistonos" unicode="&#x385;" horiz-adv-x="500" 
d="M337 868h50l-128 -146h-32zM353 661q9 -9 9 -25q0 -15 -9 -24q-10 -8 -24 -8q-16 0 -24 8q-9 9 -9 24q0 16 9 25q7 8 24 8q16 0 24 -8zM195 661q9 -9 9 -25q0 -15 -9 -24q-10 -8 -24 -8q-16 0 -24 8q-9 9 -9 24q0 16 9 25q7 8 24 8q16 0 24 -8z" />
    <glyph glyph-name="Alpha" unicode="&#x391;" horiz-adv-x="629" 
d="M291 714h48l290 -714h-43l-90 226h-361l-91 -226h-44zM149 262h333l-165 410h-3z" />
    <glyph glyph-name="Beta" unicode="&#x392;" horiz-adv-x="662" 
d="M74 714h310q90 0 147 -45q59 -48 59 -134q0 -60 -38 -106q-37 -43 -92 -57q70 -11 114 -58q44 -49 44 -118q0 -100 -72 -151q-64 -45 -168 -45h-304v714zM113 678v-290h265q75 0 123 37q50 39 50 108q0 72 -49 110q-45 35 -125 35h-264zM113 352v-316h270q85 0 137 36
q59 42 59 123q0 78 -59 120q-53 37 -140 37h-267z" />
    <glyph glyph-name="Gamma" unicode="&#x393;" horiz-adv-x="584" 
d="M74 714h485v-36h-446v-678h-39v714z" />
    <glyph glyph-name="uni0394" unicode="&#x394;" horiz-adv-x="629" 
d="M292 714h46l277 -714h-601zM315 668l-244 -631h488z" />
    <glyph glyph-name="Epsilon" unicode="&#x395;" horiz-adv-x="630" 
d="M74 714h495v-36h-456v-289h433v-36h-433v-317h473v-36h-512v714z" />
    <glyph glyph-name="Zeta" unicode="&#x396;" horiz-adv-x="605" 
d="M55 714h501v-38l-482 -640h506v-36h-555v37l483 641h-453v36z" />
    <glyph glyph-name="Eta" unicode="&#x397;" horiz-adv-x="702" 
d="M74 714h39v-325h475v325h39v-714h-39v353h-475v-353h-39v714z" />
    <glyph glyph-name="Theta" unicode="&#x398;" horiz-adv-x="757" 
d="M627 619q86 -103 86 -262t-86 -263q-93 -108 -248 -108q-157 0 -248 109q-87 102 -87 262t87 262q91 109 248 109t248 -109zM160 595q-77 -92 -77 -238q0 -148 77 -238q81 -96 219 -96q137 0 218 96q77 92 77 238q0 147 -77 238q-81 96 -218 96q-138 0 -219 -96zM205 380
h348v-38h-348v38z" />
    <glyph glyph-name="Iota" unicode="&#x399;" horiz-adv-x="212" 
d="M87 714h39v-714h-39v714z" />
    <glyph glyph-name="Kappa" unicode="&#x39a;" horiz-adv-x="662" 
d="M74 714h39v-413l449 413h55l-333 -304l378 -410h-54l-352 385l-143 -131v-254h-39v714z" />
    <glyph glyph-name="Lambda" unicode="&#x39b;" horiz-adv-x="614" 
d="M281 714h53l275 -714h-41l-260 678h-2l-260 -678h-41z" />
    <glyph glyph-name="Mu" unicode="&#x39c;" horiz-adv-x="856" 
d="M74 714h59l294 -668h3l293 668h59v-714h-39v661h-3l-291 -661h-42l-291 661h-3v-661h-39v714z" />
    <glyph glyph-name="Nu" unicode="&#x39d;" horiz-adv-x="703" 
d="M74 714h50l464 -661h2v661h39v-714h-48l-466 665h-2v-665h-39v714z" />
    <glyph glyph-name="Xi" unicode="&#x39e;" horiz-adv-x="623" 
d="M63 714h497v-36h-497v36zM112 377h399v-36h-399v36zM54 36h515v-36h-515v36z" />
    <glyph glyph-name="Omicron" unicode="&#x39f;" horiz-adv-x="757" 
d="M627 619q86 -103 86 -262t-86 -263q-93 -108 -248 -108q-157 0 -248 109q-87 102 -87 262t87 262q91 109 248 109t248 -109zM160 595q-77 -92 -77 -238q0 -148 77 -238q81 -96 219 -96q137 0 218 96q77 92 77 238q0 147 -77 238q-81 96 -218 96q-138 0 -219 -96z" />
    <glyph glyph-name="Pi" unicode="&#x3a0;" horiz-adv-x="692" 
d="M74 714h544v-714h-39v678h-466v-678h-39v714z" />
    <glyph glyph-name="Rho" unicode="&#x3a1;" horiz-adv-x="626" 
d="M74 714h288q229 0 229 -199q0 -201 -230 -201h-248v-314h-39v714zM113 678v-328h247q97 0 146 43q46 41 46 122t-46 121q-48 42 -146 42h-247z" />
    <glyph glyph-name="Sigma" unicode="&#x3a3;" horiz-adv-x="585" 
d="M37 714h502v-36h-459l282 -305l-290 -337h483v-36h-526v45l282 327l-274 296v46z" />
    <glyph glyph-name="Tau" unicode="&#x3a4;" horiz-adv-x="623" 
d="M19 714h585v-36h-272v-678h-39v678h-274v36z" />
    <glyph glyph-name="Upsilon" unicode="&#x3a5;" horiz-adv-x="626" 
d="M5 714h49l259 -380l260 380h48l-288 -417v-297h-39v297z" />
    <glyph glyph-name="Phi" unicode="&#x3a6;" horiz-adv-x="768" 
d="M365 714h39v-82q132 -3 210 -51q109 -67 109 -212q0 -144 -109 -212q-79 -47 -210 -52v-105h-39v105q-131 3 -212 52q-109 67 -109 212q0 146 109 212q79 48 212 51v82zM365 596q-124 -3 -191 -47q-91 -55 -91 -180q0 -123 91 -180q70 -44 191 -47v454zM404 142
q119 3 190 46q91 58 91 181q0 124 -91 180q-70 44 -190 47v-454z" />
    <glyph glyph-name="Chi" unicode="&#x3a7;" horiz-adv-x="604" 
d="M28 714h49l225 -310l224 310h50l-250 -342l273 -372h-50l-247 342l-247 -342h-50l273 372z" />
    <glyph glyph-name="Psi" unicode="&#x3a8;" horiz-adv-x="750" 
d="M54 714h39v-214q0 -127 74 -188q63 -52 188 -57v459h39v-459q124 4 190 57q73 62 73 188v214h38v-214q0 -272 -301 -281v-219h-39v219q-301 9 -301 281v214z" />
    <glyph glyph-name="uni03A9" unicode="&#x3a9;" horiz-adv-x="718" 
d="M585 629q89 -98 89 -245q0 -236 -187 -348h182v-36h-238v42q94 48 146 125q58 90 58 217q0 133 -79 221q-80 86 -197 86q-119 0 -196 -86q-80 -86 -80 -221q0 -129 58 -217q50 -75 146 -125v-42h-238v36h183q-188 110 -188 348q0 149 89 245q90 99 226 99t226 -99z" />
    <glyph glyph-name="alpha" unicode="&#x3b1;" horiz-adv-x="595" 
d="M464 396h2l3 121h33v-424q0 -72 42 -72q6 0 33 5l4 -32q-26 -8 -46 -8q-37 0 -54 31q-16 27 -16 68v36h-1q-54 -135 -191 -135q-113 0 -173 83q-56 74 -56 189q0 114 57 189q63 84 172 84q131 0 191 -135zM131 424q-47 -62 -47 -166q0 -105 47 -168q51 -69 145 -69
q96 0 145 72q42 65 42 165t-45 164q-50 74 -143 74t-144 -72z" />
    <glyph glyph-name="beta" unicode="&#x3b2;" horiz-adv-x="562" 
d="M416 678q51 -48 51 -119q0 -115 -103 -154v-1q71 -18 112 -71q41 -52 41 -122q0 -99 -60 -162t-162 -63q-58 0 -109 31q-52 33 -81 90h-2v-305h-39v669q0 128 60 195q55 62 153 62q86 0 139 -50zM153 642q-50 -56 -50 -170v-241q0 -91 57 -153q54 -57 129 -57
q88 0 139 53q50 53 50 136q0 78 -51 124q-52 48 -146 48h-47v33h43q69 0 111 39q40 40 40 100q0 59 -40 99q-41 40 -113 40q-77 0 -122 -51z" />
    <glyph glyph-name="gamma" unicode="&#x3b3;" horiz-adv-x="529" 
d="M14 517h22q46 0 72 -23q20 -17 38 -64l141 -373l185 460h43l-209 -508v-207h-38v206l-158 411q-15 37 -30 50q-14 13 -50 13h-16v35z" />
    <glyph glyph-name="delta" unicode="&#x3b4;" horiz-adv-x="569" 
d="M126 714h338v-35h-288l219 -174q69 -54 98 -106q32 -58 32 -146q0 -108 -56 -182q-67 -85 -182 -85t-183 84q-60 75 -60 183t67 182q68 78 171 78q32 0 54 -7l-210 167v41zM139 412q-56 -63 -56 -159q0 -95 51 -161q57 -71 153 -71q98 0 152 71q47 64 47 161
q0 98 -47 159q-52 68 -151 68q-91 0 -149 -68z" />
    <glyph glyph-name="epsilon" unicode="&#x3b5;" horiz-adv-x="503" 
d="M403 477q46 -44 53 -100h-39q-9 44 -43 78q-46 42 -119 42q-75 0 -114 -29q-41 -28 -41 -79q0 -49 44 -77q37 -23 92 -23h46v-33h-41q-71 0 -113 -27q-45 -27 -45 -80q0 -56 41 -91q44 -38 123 -38q70 0 115 31q44 34 58 104h39q-12 -82 -69 -126q-57 -43 -143 -43
q-95 0 -151 48q-52 45 -52 114q0 96 108 126q-91 36 -91 117q0 67 53 102q51 38 141 38q91 0 148 -54z" />
    <glyph glyph-name="zeta" unicode="&#x3b6;" horiz-adv-x="463" 
d="M90 714h359v-46q-145 -52 -254 -188q-112 -137 -112 -282q0 -87 52 -126q35 -25 120 -38q94 -14 126 -34q54 -30 54 -112q0 -38 -18 -86h-40q20 48 20 84q0 57 -30 78q-32 22 -125 34q-107 14 -152 60q-46 46 -46 139q0 148 110 288q99 130 243 194h-307v35z" />
    <glyph glyph-name="eta" unicode="&#x3b7;" horiz-adv-x="532" 
d="M468 317v-515h-39v514q0 180 -158 180q-70 0 -117 -51q-48 -49 -51 -132v-313h-39v517h39v-94q23 48 70 79q45 29 104 29q191 0 191 -214z" />
    <glyph glyph-name="theta" unicode="&#x3b8;" horiz-adv-x="517" 
d="M430 603q43 -98 43 -245q0 -145 -43 -246q-57 -126 -172 -126q-114 0 -170 125q-44 97 -44 247q0 152 44 246q55 124 170 124t172 -125zM120 583q-34 -80 -37 -202h351q-3 118 -37 202q-46 110 -139 110t-138 -110zM83 345q2 -129 37 -213q45 -111 138 -111t139 111
q34 84 37 213h-351z" />
    <glyph glyph-name="iota" unicode="&#x3b9;" horiz-adv-x="274" 
d="M64 517h39v-397q0 -99 68 -99q32 0 72 14l6 -33q-46 -16 -82 -16q-103 0 -103 134v397z" />
    <glyph glyph-name="kappa" unicode="&#x3ba;" horiz-adv-x="509" 
d="M64 517h39v-291l319 291h54l-223 -203l247 -314h-49l-226 288l-122 -110v-178h-39v517z" />
    <glyph glyph-name="lambda" unicode="&#x3bb;" horiz-adv-x="561" 
d="M228 688q24 -30 51 -109l153 -472q27 -86 71 -86q9 0 37 7l7 -34q-30 -8 -51 -8q-39 0 -63 30q-22 25 -37 73l-119 371l-220 -460h-43l247 511l-17 52q-24 75 -43 100q-24 30 -62 30q-26 0 -51 -7l-7 35q32 7 61 7q55 0 86 -40z" />
    <glyph glyph-name="uni03BC" unicode="&#x3bc;" horiz-adv-x="532" 
d="M64 517h39v-315q0 -181 158 -181q70 0 118 51t51 132v313h38v-517h-38v96q-30 -57 -74 -84q-43 -26 -99 -26q-110 0 -154 85v-269h-39v715z" />
    <glyph glyph-name="nu" unicode="&#x3bd;" horiz-adv-x="478" 
d="M14 517h42l163 -478q69 66 125 197q56 139 65 281h39q-9 -147 -70 -298q-64 -148 -146 -219h-39z" />
    <glyph glyph-name="xi" unicode="&#x3be;" horiz-adv-x="458" 
d="M59 714h356v-34h-19q-84 0 -168 -48q-98 -55 -98 -132q0 -44 45 -74q54 -36 153 -36h73v-35h-86q-94 0 -163 -59q-69 -57 -69 -126q0 -68 52 -101q33 -21 117 -39q100 -20 130 -37q62 -32 62 -104q0 -35 -19 -87h-39q20 54 20 85q0 54 -52 77q-19 9 -110 28
q-99 21 -137 49q-63 42 -63 128q0 64 50 120q50 59 123 83q-61 18 -93 51q-33 35 -33 76q0 62 56 111q47 44 123 69h-211v35z" />
    <glyph glyph-name="omicron" unicode="&#x3bf;" horiz-adv-x="570" 
d="M465 446q61 -76 61 -188q0 -109 -61 -188q-67 -84 -180 -84q-114 0 -180 84q-61 77 -61 188q0 114 61 188q66 85 180 85q113 0 180 -85zM134 423q-51 -66 -51 -165q0 -98 51 -164q56 -73 151 -73q93 0 151 73q51 66 51 164q0 99 -51 165q-57 73 -151 73q-96 0 -151 -73z
" />
    <glyph glyph-name="pi" unicode="&#x3c0;" horiz-adv-x="626" 
d="M24 517h564v-35h-125v-369q0 -91 63 -91q32 0 69 13l7 -36q-50 -13 -83 -13q-94 0 -94 126v370h-261v-482h-38v482h-102v35z" />
    <glyph glyph-name="rho" unicode="&#x3c1;" horiz-adv-x="589" 
d="M484 447q60 -75 60 -189q0 -111 -60 -189q-66 -83 -176 -83q-140 0 -206 143v-327h-38v453q0 120 59 194q64 82 180 82q114 0 181 -84zM153 427q-51 -64 -51 -169q0 -94 53 -162q59 -75 153 -75q91 0 147 71q51 68 51 166q0 100 -51 166q-57 72 -152 72q-96 0 -150 -69z
" />
    <glyph glyph-name="sigma" unicode="&#x3c3;" horiz-adv-x="581" 
d="M567 517v-35h-173q132 -69 132 -232q0 -106 -61 -182q-68 -82 -180 -82q-113 0 -180 82q-61 74 -61 182q0 122 71 194q69 73 179 73h273zM141 418q-58 -62 -58 -168q0 -97 50 -159q55 -70 152 -70q93 0 150 69q52 66 52 160q0 97 -53 162q-55 70 -146 70q-92 0 -147 -64z
" />
    <glyph glyph-name="tau" unicode="&#x3c4;" horiz-adv-x="487" 
d="M14 517h458v-35h-230v-369q0 -91 59 -91q32 0 68 13l7 -36q-49 -13 -82 -13q-90 0 -90 126v370h-190v35z" />
    <glyph glyph-name="upsilon" unicode="&#x3c5;" horiz-adv-x="533" 
d="M64 517h39v-324q0 -85 38 -127q39 -45 126 -45q82 0 124 45q39 44 39 127v324h38v-325q0 -206 -201 -206q-203 0 -203 206v325z" />
    <glyph glyph-name="phi" unicode="&#x3c6;" horiz-adv-x="700" 
d="M331 714h39v-203q125 -3 203 -66q84 -69 84 -186t-84 -186q-79 -64 -203 -67v-204h-39v204q-125 3 -203 67q-84 71 -84 186q0 118 84 185q76 64 203 67v203zM331 477q-114 -3 -179 -59q-69 -60 -69 -159t69 -159q67 -56 179 -59v436zM370 41q112 3 179 59q69 60 69 159
t-69 159q-65 56 -179 59v-436z" />
    <glyph glyph-name="chi" unicode="&#x3c7;" horiz-adv-x="485" 
d="M28 517h43l171 -301l172 301h44l-195 -338l217 -377h-44l-194 340l-193 -340h-44l217 377z" />
    <glyph glyph-name="psi" unicode="&#x3c8;" horiz-adv-x="666" 
d="M317 714h39v-673q104 3 161 51q67 58 67 174q0 141 -59 253l36 12q61 -124 61 -265q0 -130 -72 -196q-67 -61 -194 -64v-204h-39v204q-253 6 -253 245v266h39v-266q0 -100 48 -151q53 -56 166 -59v673z" />
    <glyph glyph-name="omega" unicode="&#x3c9;" horiz-adv-x="726" 
d="M163 518q-80 -127 -80 -275q0 -99 40 -160q39 -62 105 -62q54 0 87 53q29 52 29 133v147h38v-147q0 -81 30 -134q31 -52 86 -52q64 0 105 62q40 63 40 160q0 145 -80 275l35 13q84 -135 84 -288q0 -107 -49 -181q-52 -76 -134 -76q-103 0 -136 121q-33 -121 -137 -121
q-81 0 -133 76q-49 71 -49 181q0 153 84 288z" />
    <glyph glyph-name="uni0401" unicode="&#x401;" horiz-adv-x="630" 
d="M260 848q9 -7 9 -24q0 -15 -9 -24t-24 -9q-16 0 -24 9q-9 9 -9 24q0 17 9 24q8 9 24 9q15 0 24 -9zM419 848q8 -8 8 -24q0 -14 -8 -24q-9 -9 -25 -9t-24 9q-9 9 -9 24q0 17 9 24q8 9 24 9t25 -9zM74 714h495v-36h-456v-289h433v-36h-433v-317h473v-36h-512v714z" />
    <glyph glyph-name="uni0410" unicode="&#x410;" horiz-adv-x="629" 
d="M291 714h48l290 -714h-43l-90 226h-361l-91 -226h-44zM149 262h333l-165 410h-3z" />
    <glyph glyph-name="uni0411" unicode="&#x411;" horiz-adv-x="662" 
d="M551 714v-36h-438v-278h267q113 0 176 -51q62 -51 62 -142q0 -207 -235 -207h-309v714h477zM113 365v-329h267q199 0 199 171q0 74 -52 117q-53 41 -153 41h-261z" />
    <glyph glyph-name="uni0412" unicode="&#x412;" horiz-adv-x="662" 
d="M74 714h310q90 0 147 -45q59 -48 59 -134q0 -60 -38 -106q-37 -43 -92 -57q70 -11 114 -58q44 -49 44 -118q0 -100 -72 -151q-64 -45 -168 -45h-304v714zM113 678v-290h265q75 0 123 37q50 39 50 108q0 72 -49 110q-45 35 -125 35h-264zM113 352v-316h270q85 0 137 36
q59 42 59 123q0 78 -59 120q-53 37 -140 37h-267z" />
    <glyph glyph-name="uni0413" unicode="&#x413;" horiz-adv-x="582" 
d="M74 714h484v-36h-445v-678h-39v714z" />
    <glyph glyph-name="uni0414" unicode="&#x414;" horiz-adv-x="674" 
d="M559 714v-676h90v-178h-39v142h-547v-142h-39v178h73l110 676h352zM241 678l-104 -640h383v640h-279z" />
    <glyph glyph-name="uni0415" unicode="&#x415;" horiz-adv-x="630" 
d="M74 714h495v-36h-456v-289h433v-36h-433v-317h473v-36h-512v714z" />
    <glyph glyph-name="uni0416" unicode="&#x416;" horiz-adv-x="881" 
d="M117 714q24 -165 106 -253q76 -82 199 -88v341h38v-341q122 8 198 88q81 87 105 253h40q-27 -181 -117 -278q-33 -33 -64 -52l235 -384h-47l-223 366q-58 -25 -127 -29v-337h-38v337q-68 3 -128 28l-223 -365h-47l235 383q-36 23 -65 53q-91 98 -116 278h39z" />
    <glyph glyph-name="uni0417" unicode="&#x417;" horiz-adv-x="571" 
d="M460 679q61 -49 61 -143q0 -46 -28 -91q-32 -47 -87 -68q131 -45 131 -172q0 -105 -68 -162q-67 -57 -181 -57q-109 0 -170 56q-62 56 -74 175h40q9 -97 59 -145q52 -49 145 -49q95 0 153 47q57 48 57 135q0 85 -70 125q-43 26 -101 26h-74v36h74q70 0 116 49
q39 42 39 94q0 156 -188 156q-88 0 -138 -43q-50 -42 -66 -124h-40q36 204 244 204q107 0 166 -49z" />
    <glyph glyph-name="uni0418" unicode="&#x418;" horiz-adv-x="703" 
d="M74 714h39v-665h2l466 665h48v-714h-39v661h-2l-464 -661h-50v714z" />
    <glyph glyph-name="uni0419" unicode="&#x419;" horiz-adv-x="703" 
d="M240 894q7 -51 34 -76q27 -29 78 -29q49 0 78 29q24 26 33 76h32q-9 -61 -39 -92q-36 -39 -104 -39q-70 0 -105 39q-31 31 -39 92h32zM74 714h39v-665h2l466 665h48v-714h-39v661h-2l-464 -661h-50v714z" />
    <glyph glyph-name="uni041A" unicode="&#x41a;" horiz-adv-x="637" 
d="M74 714h39v-342q185 3 282 78q100 81 133 264h41q-34 -201 -147 -291l-35 -24l226 -399h-46l-214 381q-96 -43 -240 -45v-336h-39v714z" />
    <glyph glyph-name="uni041B" unicode="&#x41b;" horiz-adv-x="697" 
d="M260 714h363v-714h-39v678h-290l-80 -489q-18 -107 -56 -148q-39 -41 -119 -41h-25v38h20q61 0 92 29q35 35 50 127z" />
    <glyph glyph-name="uni041C" unicode="&#x41c;" horiz-adv-x="856" 
d="M74 714h59l294 -668h3l293 668h59v-714h-39v661h-3l-291 -661h-42l-291 661h-3v-661h-39v714z" />
    <glyph glyph-name="uni041D" unicode="&#x41d;" horiz-adv-x="702" 
d="M74 714h39v-325h475v325h39v-714h-39v353h-475v-353h-39v714z" />
    <glyph glyph-name="uni041E" unicode="&#x41e;" horiz-adv-x="757" 
d="M627 619q86 -103 86 -262t-86 -263q-93 -108 -248 -108q-157 0 -248 109q-87 102 -87 262t87 262q91 109 248 109t248 -109zM160 595q-77 -92 -77 -238q0 -148 77 -238q81 -96 219 -96q137 0 218 96q77 92 77 238q0 147 -77 238q-81 96 -218 96q-138 0 -219 -96z" />
    <glyph glyph-name="uni041F" unicode="&#x41f;" horiz-adv-x="692" 
d="M74 714h544v-714h-39v678h-466v-678h-39v714z" />
    <glyph glyph-name="uni0420" unicode="&#x420;" horiz-adv-x="626" 
d="M74 714h288q229 0 229 -199q0 -201 -230 -201h-248v-314h-39v714zM113 678v-328h247q97 0 146 43q46 41 46 122t-46 121q-48 42 -146 42h-247z" />
    <glyph glyph-name="uni0421" unicode="&#x421;" horiz-adv-x="723" 
d="M570 668q87 -63 99 -167h-38q-12 87 -86 140q-71 50 -164 50q-139 0 -222 -99q-76 -94 -76 -239q0 -144 76 -235q78 -95 213 -95q96 0 169 53q79 61 100 166h38q-24 -123 -112 -193q-82 -63 -195 -63q-152 0 -243 109q-85 101 -85 258q0 158 86 262q91 113 251 113
q108 0 189 -60z" />
    <glyph glyph-name="uni0422" unicode="&#x422;" horiz-adv-x="623" 
d="M19 714h585v-36h-272v-678h-39v678h-274v36z" />
    <glyph glyph-name="uni0423" unicode="&#x423;" horiz-adv-x="579" 
d="M5 714h46l252 -501l226 501h45l-249 -546q-41 -90 -94 -128q-55 -40 -138 -40h-48v38h44q75 0 127 40q36 32 65 89z" />
    <glyph glyph-name="uni0424" unicode="&#x424;" horiz-adv-x="768" 
d="M365 714h39v-82q132 -3 210 -51q109 -67 109 -212q0 -144 -109 -212q-79 -47 -210 -52v-105h-39v105q-131 3 -212 52q-109 67 -109 212q0 146 109 212q79 48 212 51v82zM365 596q-124 -3 -191 -47q-91 -55 -91 -180q0 -123 91 -180q70 -44 191 -47v454zM404 142
q119 3 190 46q91 58 91 181q0 124 -91 180q-70 44 -190 47v-454z" />
    <glyph glyph-name="uni0425" unicode="&#x425;" horiz-adv-x="604" 
d="M28 714h49l225 -310l224 310h50l-250 -342l273 -372h-50l-247 342l-247 -342h-50l273 372z" />
    <glyph glyph-name="uni0426" unicode="&#x426;" horiz-adv-x="702" 
d="M74 714h39v-678h424v678h38v-678h103v-176h-39v140h-565v714z" />
    <glyph glyph-name="uni0427" unicode="&#x427;" horiz-adv-x="646" 
d="M74 714h39v-233q0 -105 37 -149q37 -43 121 -43q127 0 262 152v273h39v-714h-39v394q-37 -37 -65 -60q-102 -81 -202 -81q-99 0 -145 52q-47 53 -47 173v236z" />
    <glyph glyph-name="uni0428" unicode="&#x428;" horiz-adv-x="885" 
d="M74 714h39v-678h310v678h39v-678h309v678h39v-714h-736v714z" />
    <glyph glyph-name="uni0429" unicode="&#x429;" horiz-adv-x="934" 
d="M74 714h39v-678h310v678h39v-678h309v678h39v-678h100v-176h-39v140h-797v714z" />
    <glyph glyph-name="uni042A" unicode="&#x42a;" horiz-adv-x="789" 
d="M24 714h231v-314h252q113 0 176 -51q62 -51 62 -142q0 -207 -235 -207h-294v678h-192v36zM255 365v-329h252q199 0 199 171q0 75 -53 117q-53 41 -153 41h-245z" />
    <glyph glyph-name="uni042B" unicode="&#x42b;" horiz-adv-x="869" 
d="M756 714h39v-714h-39v714zM74 714h39v-314h221q113 0 176 -51q62 -51 62 -142q0 -207 -235 -207h-263v714zM113 365v-329h221q199 0 199 171q0 75 -53 117q-51 41 -152 41h-215z" />
    <glyph glyph-name="uni042C" unicode="&#x42c;" horiz-adv-x="662" 
d="M74 714h39v-314h267q113 0 176 -51q62 -51 62 -142q0 -207 -235 -207h-309v714zM113 365v-329h267q199 0 199 171q0 74 -52 117q-53 41 -153 41h-261z" />
    <glyph glyph-name="uni042D" unicode="&#x42d;" horiz-adv-x="705" 
d="M578 619q83 -101 83 -261q0 -159 -82 -262q-91 -109 -241 -109q-108 0 -186 55q-77 58 -98 154h40q18 -78 85 -127q67 -46 159 -46q133 0 211 95q70 88 73 227h-416v36h415q-6 130 -72 214q-78 96 -211 96q-92 0 -158 -45q-67 -46 -85 -126h-40q20 97 96 151
q78 57 187 57q152 0 240 -109z" />
    <glyph glyph-name="uni042E" unicode="&#x42e;" horiz-adv-x="934" 
d="M74 714h39v-333h190q4 150 74 242q78 105 219 105t218 -104q76 -100 76 -267q0 -165 -76 -267q-78 -104 -218 -104t-218 104q-72 96 -75 255h-190v-345h-39v714zM408 601q-66 -90 -66 -244q0 -153 66 -243q68 -91 188 -91q118 0 188 91q67 91 67 243q0 153 -67 244
q-69 90 -188 90q-122 0 -188 -90z" />
    <glyph glyph-name="uni042F" unicode="&#x42f;" horiz-adv-x="634" 
d="M559 714v-714h-38v317h-212q-28 0 -52 3l-189 -320h-44l193 326q-41 9 -73 28q-80 50 -80 163q0 197 260 197h235zM325 678q-112 0 -165 -38q-57 -40 -57 -123q0 -164 210 -164h208v325h-196z" />
    <glyph glyph-name="uni0430" unicode="&#x430;" horiz-adv-x="543" 
d="M435 471q44 -50 44 -137v-334h-37v111q-32 -46 -87 -83q-66 -42 -143 -42q-74 0 -121 38q-47 40 -47 106q0 99 83 143q64 35 175 35l139 1v21q0 166 -165 166q-74 0 -119 -33q-50 -35 -59 -100h-38q12 84 71 127q54 41 146 41q106 0 158 -60zM441 275l-138 -1
q-220 -1 -220 -145q0 -49 37 -79q37 -29 99 -29q84 0 155 59q67 59 67 120v75z" />
    <glyph glyph-name="uni0431" unicode="&#x431;" horiz-adv-x="549" 
d="M473 705q-19 -29 -46 -44q-35 -19 -104 -28q-201 -22 -234 -258q30 50 77 80q49 32 113 32q103 0 164 -70t61 -180q0 -107 -64 -180q-66 -71 -165 -71q-105 0 -168 77q-63 75 -63 188q0 175 57 277q66 121 209 139q67 9 94 23q25 13 40 36zM137 388q-54 -60 -54 -141
q0 -96 50 -158q51 -68 141 -68q84 0 138 60q53 61 53 156q0 98 -51 156q-50 59 -138 59q-85 0 -139 -64z" />
    <glyph glyph-name="uni0432" unicode="&#x432;" horiz-adv-x="519" 
d="M64 517h233q70 0 111 -29q47 -32 47 -97q0 -86 -98 -119q118 -32 118 -129q0 -65 -42 -103q-46 -40 -132 -40h-237v517zM103 483v-197h171q62 0 102 26q43 28 43 77q0 94 -125 94h-191zM103 252v-218h196q81 0 114 36q26 28 26 75q0 107 -163 107h-173z" />
    <glyph glyph-name="uni0433" unicode="&#x433;" horiz-adv-x="432" 
d="M64 517h344v-35h-305v-482h-39v517z" />
    <glyph glyph-name="uni0434" unicode="&#x434;" horiz-adv-x="535" 
d="M441 517v-482h70v-175h-39v140h-409v-140h-39v175h58l83 482h276zM199 482l-77 -447h281v447h-204z" />
    <glyph glyph-name="uni0435" unicode="&#x435;" horiz-adv-x="540" 
d="M449 449q51 -70 57 -203h-432q3 -104 55 -163q54 -62 141 -62q77 0 126 43q40 37 58 102h41q-18 -75 -68 -124q-62 -56 -157 -56q-108 0 -171 75q-65 75 -65 198q0 113 62 190q66 82 173 82q120 0 180 -82zM132 435q-52 -61 -58 -155h392q-16 216 -196 216
q-86 0 -138 -61z" />
    <glyph glyph-name="uni0436" unicode="&#x436;" horiz-adv-x="716" 
d="M100 517q21 -119 82 -178q59 -59 158 -65v243h38v-243q97 6 158 64q60 61 81 179h40q-24 -132 -89 -199q-23 -21 -43 -36l167 -282h-47l-154 264q-54 -22 -113 -25v-239h-38v239q-62 3 -114 25l-155 -264h-47l168 282q-25 16 -44 36q-66 69 -89 199h41z" />
    <glyph glyph-name="uni0437" unicode="&#x437;" horiz-adv-x="503" 
d="M390 493q52 -37 52 -102q0 -81 -92 -117q109 -30 109 -126q0 -69 -51 -114q-57 -48 -151 -48q-89 0 -143 42q-58 45 -70 127h39q12 -69 59 -104q43 -31 115 -31q77 0 123 38q40 37 40 91q0 51 -40 79q-41 28 -110 28h-48v33h49q54 0 90 24q42 27 42 76q0 52 -41 79
q-39 29 -114 29q-73 0 -118 -42q-35 -32 -43 -78h-39q6 57 53 100q57 54 147 54q89 0 142 -38z" />
    <glyph glyph-name="uni0438" unicode="&#x438;" horiz-adv-x="547" 
d="M64 517h39v-463l335 463h44v-517h-38v463l-335 -463h-45v517z" />
    <glyph glyph-name="uni0439" unicode="&#x439;" horiz-adv-x="547" 
d="M162 717q8 -49 33 -75q27 -30 79 -30q49 0 78 29q26 27 33 76h32q-9 -61 -38 -93q-36 -38 -105 -38q-70 0 -105 39q-32 32 -38 92h31zM64 517h39v-463l335 463h44v-517h-38v463l-335 -463h-45v517z" />
    <glyph glyph-name="uni043A" unicode="&#x43a;" horiz-adv-x="492" 
d="M64 517h39v-243q128 3 200 54q78 59 99 189h40q-24 -148 -111 -214q-10 -6 -23 -16l160 -287h-45l-149 270q-69 -29 -171 -31v-239h-39v517z" />
    <glyph glyph-name="uni043B" unicode="&#x43b;" horiz-adv-x="555" 
d="M204 517h287v-517h-38v482h-215l-60 -348q-13 -77 -47 -108q-28 -26 -84 -26h-23v35h20q40 0 62 19q23 21 35 87z" />
    <glyph glyph-name="uni043C" unicode="&#x43c;" horiz-adv-x="704" 
d="M64 517h48l240 -477h1l240 477h47v-517h-38v450h-2l-227 -450h-42l-227 450h-1v-450h-39v517z" />
    <glyph glyph-name="uni043D" unicode="&#x43d;" horiz-adv-x="545" 
d="M64 517h39v-228h339v228h39v-517h-39v254h-339v-254h-39v517z" />
    <glyph glyph-name="uni043E" unicode="&#x43e;" horiz-adv-x="570" 
d="M465 446q61 -76 61 -188q0 -109 -61 -188q-67 -84 -180 -84q-114 0 -180 84q-61 77 -61 188q0 114 61 188q66 85 180 85q113 0 180 -85zM134 423q-51 -66 -51 -165q0 -98 51 -164q56 -73 151 -73q93 0 151 73q51 66 51 164q0 99 -51 165q-57 73 -151 73q-96 0 -151 -73z
" />
    <glyph glyph-name="uni043F" unicode="&#x43f;" horiz-adv-x="545" 
d="M64 517h417v-517h-38v482h-340v-482h-39v517z" />
    <glyph glyph-name="uni0440" unicode="&#x440;" horiz-adv-x="566" 
d="M465 447q57 -75 57 -189q0 -113 -56 -189q-62 -83 -172 -83q-137 0 -191 136v-320h-39v715h37v-121q59 135 192 135q109 0 172 -84zM149 425q-47 -62 -47 -164v-12q0 -99 48 -162q51 -66 140 -66q94 0 145 69q47 65 47 168q0 102 -47 166q-51 72 -144 72q-92 0 -142 -71z
" />
    <glyph glyph-name="uni0441" unicode="&#x441;" horiz-adv-x="529" 
d="M423 486q57 -45 69 -136h-38q-10 72 -56 109q-47 37 -121 37q-89 0 -143 -70q-51 -66 -51 -173q0 -105 49 -167q50 -65 144 -65q154 0 181 161h38q-15 -95 -72 -146q-58 -50 -147 -50q-113 0 -175 78q-57 72 -57 189q0 119 60 195q62 83 173 83q89 0 146 -45z" />
    <glyph glyph-name="uni0442" unicode="&#x442;" horiz-adv-x="498" 
d="M24 517h450v-35h-206v-482h-38v482h-206v35z" />
    <glyph glyph-name="uni0443" unicode="&#x443;" horiz-adv-x="461" 
d="M5 517h42l191 -475l177 475h41l-204 -542q-35 -93 -76 -132q-46 -41 -122 -41h-21v35h18q65 0 104 39q30 32 64 116z" />
    <glyph glyph-name="uni0444" unicode="&#x444;" horiz-adv-x="784" 
d="M373 728h39v-263q50 66 128 66q94 0 148 -72q52 -72 52 -200t-52 -201q-54 -72 -148 -72q-78 0 -128 66v-250h-39v250q-51 -66 -128 -66q-95 0 -148 72q-53 71 -53 201q0 129 54 201q50 71 147 71q77 0 128 -66v263zM129 439q-46 -61 -46 -180t46 -180q43 -58 120 -58
q41 0 75 26q35 27 49 64v295q-15 38 -49 63q-33 27 -75 27q-78 0 -120 -57zM461 469q-34 -24 -49 -63v-295q15 -39 49 -64q34 -26 75 -26q76 0 120 58q45 62 45 180q0 120 -45 180q-43 57 -120 57q-42 0 -75 -27z" />
    <glyph glyph-name="uni0445" unicode="&#x445;" horiz-adv-x="476" 
d="M26 517h48l164 -215l164 215h47l-188 -245l210 -272h-48l-185 243l-186 -243h-47l210 272z" />
    <glyph glyph-name="uni0446" unicode="&#x446;" horiz-adv-x="562" 
d="M64 517h39v-482h310v482h39v-482h86v-175h-39v140h-435v517z" />
    <glyph glyph-name="uni0447" unicode="&#x447;" horiz-adv-x="515" 
d="M64 517h39v-145q0 -84 27 -120q28 -34 96 -34q64 0 125 42q39 25 61 55v202h39v-517h-39v268q-21 -21 -45 -38q-70 -48 -146 -48q-84 0 -121 46q-36 45 -36 140v149z" />
    <glyph glyph-name="uni0448" unicode="&#x448;" horiz-adv-x="707" 
d="M64 517h39v-482h231v482h39v-482h232v482h38v-517h-579v517z" />
    <glyph glyph-name="uni0449" unicode="&#x449;" horiz-adv-x="742" 
d="M64 517h39v-482h231v482h39v-482h232v482h38v-482h75v-175h-38v140h-616v517z" />
    <glyph glyph-name="uni044A" unicode="&#x44a;" horiz-adv-x="600" 
d="M24 517h176v-202h184q81 0 126 -42q46 -43 46 -114q0 -73 -46 -116t-126 -43h-222v482h-138v35zM200 281v-246h179q67 0 103 33q35 33 35 91t-36 89q-36 33 -102 33h-179z" />
    <glyph glyph-name="uni044B" unicode="&#x44b;" horiz-adv-x="669" 
d="M567 517h38v-517h-38v517zM64 517h39v-202h162q82 0 127 -42q46 -43 46 -114q0 -73 -46 -116t-127 -43h-201v517zM103 281v-246h158q67 0 103 33q35 33 35 91t-36 89q-36 33 -102 33h-158z" />
    <glyph glyph-name="uni044C" unicode="&#x44c;" horiz-adv-x="511" 
d="M64 517h39v-202h192q81 0 127 -42q45 -42 45 -114q0 -74 -45 -116q-48 -43 -127 -43h-231v517zM103 281v-246h187q66 0 102 33t36 91t-36 89q-36 33 -102 33h-187z" />
    <glyph glyph-name="uni044D" unicode="&#x44d;" horiz-adv-x="534" 
d="M430 449q60 -75 60 -190q0 -113 -60 -191q-65 -82 -172 -82q-85 0 -140 40q-59 41 -74 125h39q26 -130 174 -130q89 0 142 67q49 64 52 158h-283v35h282q-6 90 -51 147q-53 68 -142 68q-147 0 -174 -129h-39q15 83 74 124q53 40 139 40q109 0 173 -82z" />
    <glyph glyph-name="uni044E" unicode="&#x44e;" horiz-adv-x="759" 
d="M64 517h39v-235h164q4 101 57 169q61 80 166 80q104 0 167 -81q57 -75 57 -191q0 -117 -57 -192q-63 -81 -167 -81t-166 81q-55 71 -58 180h-163v-247h-39v517zM355 429q-50 -65 -50 -170t49 -170q50 -68 136 -68t137 68q48 66 48 170t-48 170q-51 67 -137 67
q-87 0 -135 -67z" />
    <glyph glyph-name="uni044F" unicode="&#x44f;" horiz-adv-x="516" 
d="M452 517v-517h-39v230h-169l-24 1l-130 -231h-46l134 236q-35 8 -56 22q-54 36 -54 115q0 74 51 110q47 34 142 34h191zM262 482q-155 0 -155 -108q0 -52 30 -79q33 -30 107 -30h169v217h-151z" />
    <glyph glyph-name="uni0451" unicode="&#x451;" horiz-adv-x="540" 
d="M216 676q8 -10 8 -25q0 -14 -8 -24q-10 -8 -25 -8q-14 0 -24 8q-8 8 -8 24q0 17 8 25t24 8t25 -8zM374 676q8 -10 8 -25q0 -14 -8 -24q-10 -8 -25 -8q-14 0 -24 8q-8 8 -8 24q0 17 8 25t24 8q17 0 25 -8zM449 449q51 -70 57 -203h-432q3 -104 55 -163q54 -62 141 -62
q77 0 126 43q40 37 58 102h41q-18 -75 -68 -124q-62 -56 -157 -56q-108 0 -171 75q-65 75 -65 198q0 113 62 190q66 82 173 82q120 0 180 -82zM132 435q-52 -61 -58 -155h392q-16 216 -196 216q-86 0 -138 -61z" />
    <glyph glyph-name="uni1E3F" unicode="&#x1e3f;" horiz-adv-x="820" 
d="M496 722l-128 -146h-32l110 146h50zM418 416q24 54 67 84q41 31 97 31q82 0 128 -50q46 -51 46 -143v-338h-38v335q0 79 -33 118q-36 43 -110 43q-63 0 -103 -47q-42 -45 -42 -115v-334h-39v335q0 161 -140 161q-63 0 -105 -51q-43 -49 -43 -123v-322h-39v517h39v-88
q51 102 153 102q126 0 162 -115z" />
    <glyph glyph-name="Ygrave" unicode="&#x1ef2;" horiz-adv-x="626" 
d="M207 901h50l110 -146h-32zM5 714h49l259 -380l260 380h48l-288 -417v-297h-39v297z" />
    <glyph glyph-name="ygrave" unicode="&#x1ef3;" horiz-adv-x="459" 
d="M104 722h50l110 -146h-32zM5 517h43l182 -456l180 456h44l-287 -715h-43l86 211z" />
    <glyph glyph-name="uni2010" unicode="&#x2010;" horiz-adv-x="333" 
d="M42 378h250v-36h-250v36z" />
    <glyph glyph-name="endash" unicode="&#x2013;" horiz-adv-x="824" 
d="M50 379h724v-38h-724v38z" />
    <glyph glyph-name="emdash" unicode="&#x2014;" 
d="M0 378h1000v-36h-1000v36z" />
    <glyph glyph-name="uni2015" unicode="&#x2015;" 
d="M0 380h1000v-40h-1000v40z" />
    <glyph glyph-name="uni2016" unicode="&#x2016;" horiz-adv-x="500" 
d="M117 775h31v-830h-31v830zM352 775h31v-830h-31v830z" />
    <glyph glyph-name="quoteleft" unicode="&#x2018;" horiz-adv-x="301" 
d="M221 811q-64 -43 -67 -116q2 1 13 1q19 0 30 -10q11 -9 11 -29q0 -19 -11 -30q-13 -11 -29 -11q-48 0 -48 66q0 110 85 155z" />
    <glyph glyph-name="quoteright" unicode="&#x2019;" horiz-adv-x="301" 
d="M181 771q0 -107 -84 -155l-17 26q65 45 68 117l-13 -1q-20 0 -30 10q-11 10 -11 28q0 21 10 30q8 11 30 11q47 0 47 -66z" />
    <glyph glyph-name="quotesinglbase" unicode="&#x201a;" horiz-adv-x="301" 
d="M181 41q0 -107 -84 -154l-17 26q65 45 68 116l-13 -1q-20 0 -30 10q-11 10 -11 28q0 21 10 31t30 10q47 0 47 -66z" />
    <glyph glyph-name="quotedblleft" unicode="&#x201c;" horiz-adv-x="444" 
d="M364 811q-64 -43 -67 -116q2 1 13 1q19 0 29 -10q12 -9 12 -29q0 -19 -11 -30q-13 -11 -29 -11q-48 0 -48 66q0 110 85 155zM221 811q-64 -43 -67 -116q2 1 13 1q19 0 30 -10q11 -9 11 -29q0 -19 -11 -30q-13 -11 -29 -11q-48 0 -48 66q0 110 85 155z" />
    <glyph glyph-name="quotedblright" unicode="&#x201d;" horiz-adv-x="444" 
d="M324 771q0 -106 -85 -155l-16 26q65 45 68 117l-13 -1q-20 0 -30 10q-11 10 -11 28q0 21 10 30q8 11 30 11q47 0 47 -66zM181 771q0 -107 -84 -155l-17 26q65 45 68 117l-13 -1q-20 0 -30 10q-11 10 -11 28q0 21 10 30q8 11 30 11q47 0 47 -66z" />
    <glyph glyph-name="quotedblbase" unicode="&#x201e;" horiz-adv-x="444" 
d="M324 41q0 -107 -85 -154l-16 26q65 45 68 116l-13 -1q-20 0 -30 10q-11 10 -11 28q0 21 10 31t30 10q47 0 47 -66zM181 41q0 -107 -84 -154l-17 26q65 45 68 116l-13 -1q-20 0 -30 10q-11 10 -11 28q0 21 10 31t30 10q47 0 47 -66z" />
    <glyph glyph-name="dagger" unicode="&#x2020;" horiz-adv-x="573" 
d="M269 797h37v-237h203v-36h-203v-606h-37v606h-205v36h205v237z" />
    <glyph glyph-name="daggerdbl" unicode="&#x2021;" horiz-adv-x="573" 
d="M269 797h37v-237h203v-36h-203v-333h203v-36h-203v-237h-37v237h-205v36h205v333h-205v36h205v237z" />
    <glyph glyph-name="bullet" unicode="&#x2022;" horiz-adv-x="500" 
d="M361 470q46 -46 46 -110q0 -63 -46 -111q-48 -46 -111 -46q-64 0 -110 46t-46 111t46 110q45 46 110 46t111 -46z" />
    <glyph glyph-name="twodotenleader" unicode="&#x2025;" 
d="M279 68q11 -11 11 -28q0 -15 -11 -28q-12 -12 -29 -12t-29 12q-11 11 -11 28q0 18 11 28q12 12 29 12t29 -12zM779 68q11 -11 11 -28q0 -15 -11 -28q-12 -12 -29 -12t-29 12q-11 11 -11 28q0 18 11 28q12 12 29 12t29 -12z" />
    <glyph glyph-name="ellipsis" unicode="&#x2026;" 
d="M195 68q12 -10 12 -28q0 -16 -12 -28t-28 -12q-17 0 -28 12q-12 12 -12 28q0 18 12 28q11 12 28 12q16 0 28 -12zM529 68q11 -11 11 -28q0 -15 -11 -28q-12 -12 -29 -12t-29 12q-11 11 -11 28q0 18 11 28q12 12 29 12t29 -12zM861 68q12 -10 12 -28q0 -16 -12 -28
t-28 -12q-17 0 -28 12q-12 12 -12 28q0 18 12 28q11 12 28 12q16 0 28 -12z" />
    <glyph glyph-name="perthousand" unicode="&#x2030;" horiz-adv-x="1100" 
d="M547 728h37l-400 -742h-36zM274 656q36 -51 36 -137q0 -84 -36 -137q-39 -59 -115 -59q-75 0 -114 59q-35 50 -35 137t35 137q39 58 114 58q76 0 115 -58zM74 637q-27 -42 -27 -118q0 -74 27 -118q29 -46 85 -46t86 47q28 44 28 117q0 75 -29 118q-30 45 -85 45
q-56 0 -85 -45zM687 333q36 -51 36 -137q0 -84 -36 -137q-39 -59 -114 -59q-76 0 -115 59q-35 50 -35 137t35 137q39 58 115 58q75 0 114 -58zM488 314q-28 -41 -28 -118q0 -75 28 -118q28 -46 85 -46q55 0 85 47q28 44 28 117q0 75 -29 118q-28 45 -84 45q-58 0 -85 -45z
M1054 333q36 -51 36 -137q0 -84 -36 -137q-39 -59 -115 -59q-75 0 -114 59q-35 50 -35 137t35 137q39 58 114 58q76 0 115 -58zM855 314q-28 -41 -28 -118q0 -74 27 -118q29 -46 85 -46t86 47q28 44 28 117q0 74 -28 118q-30 45 -86 45q-57 0 -84 -45z" />
    <glyph glyph-name="minute" unicode="&#x2032;" horiz-adv-x="236" 
d="M138 817h40l-85 -241h-35z" />
    <glyph glyph-name="second" unicode="&#x2033;" horiz-adv-x="392" 
d="M138 817h40l-85 -241h-35zM294 817h40l-85 -241h-35z" />
    <glyph glyph-name="uni2035" unicode="&#x2035;" horiz-adv-x="500" 
d="M170 901h51l109 -146h-32z" />
    <glyph glyph-name="guilsinglleft" unicode="&#x2039;" horiz-adv-x="385" 
d="M335 574v-40l-251 -174l251 -174v-40l-285 197v34z" />
    <glyph glyph-name="guilsinglright" unicode="&#x203a;" horiz-adv-x="385" 
d="M50 574l285 -197v-34l-285 -197v40l251 174l-251 174v40z" />
    <glyph glyph-name="uni203B" unicode="&#x203b;" 
d="M529 696q11 -11 11 -28t-11 -28q-12 -12 -29 -12t-29 12q-11 11 -11 28q0 18 11 28q11 11 29 11t29 -11zM240 646l260 -260l260 260l26 -26l-260 -260l260 -260l-26 -26l-260 260l-260 -260l-26 26l260 260l-260 260zM221 388q12 -10 12 -28q0 -17 -12 -28
q-12 -12 -28 -12q-17 0 -28 12q-12 12 -12 28q0 18 12 28q10 11 28 11q17 0 28 -11zM837 388q11 -11 11 -28t-11 -28q-12 -12 -29 -12t-29 12q-11 11 -11 28q0 18 11 28q11 11 29 11t29 -11zM529 81q11 -11 11 -28q0 -16 -11 -29q-13 -11 -29 -11t-29 11q-11 11 -11 29
t11 28q11 11 29 11t29 -11z" />
    <glyph glyph-name="fraction" unicode="&#x2044;" horiz-adv-x="770" 
d="M707 820h43l-687 -920h-43z" />
    <glyph glyph-name="uni2070" unicode="&#x2070;" horiz-adv-x="500" 
d="M371 753q31 -59 31 -150q0 -90 -31 -150q-40 -76 -121 -76q-83 0 -121 76q-30 57 -30 150q0 94 30 151q38 75 121 75q82 0 121 -76zM133 603q0 -195 117 -195q65 0 95 63q23 52 23 132q0 81 -23 132q-30 63 -95 63q-117 0 -117 -195z" />
    <glyph glyph-name="uni2074" unicode="&#x2074;" horiz-adv-x="500" 
d="M306 821h40v-303h75v-29h-75v-104h-33v104h-233v28zM310 781l-192 -263h195v263h-3z" />
    <glyph glyph-name="uni2075" unicode="&#x2075;" horiz-adv-x="500" 
d="M136 821h248v-31h-219l-15 -158q41 42 103 42q63 0 105 -39q41 -39 41 -110q0 -63 -43 -106q-42 -42 -108 -42q-57 0 -97 31q-45 36 -50 98h33q5 -47 38 -74q30 -24 76 -24q52 0 85 33q32 35 32 84q0 58 -31 89q-32 31 -84 31q-73 0 -105 -63h-32z" />
    <glyph glyph-name="uni2076" unicode="&#x2076;" horiz-adv-x="500" 
d="M393 710h-33q-18 89 -103 89q-69 0 -99 -76q-23 -53 -23 -136q17 37 51 59q30 23 72 23q64 0 103 -40q39 -39 39 -103q0 -65 -39 -107q-40 -42 -105 -42q-81 0 -119 60q-36 56 -36 156q0 105 38 166q40 70 117 70q116 0 137 -119zM177 606q-34 -33 -34 -80q0 -49 29 -81
q32 -37 84 -37q50 0 80 33q31 34 31 85q0 50 -31 81q-31 32 -80 32q-46 0 -79 -33z" />
    <glyph glyph-name="uni2077" unicode="&#x2077;" horiz-adv-x="500" 
d="M108 821h285v-26l-172 -410h-36l171 404h-248v32z" />
    <glyph glyph-name="uni2078" unicode="&#x2078;" horiz-adv-x="500" 
d="M355 795q34 -31 34 -78q0 -71 -67 -98q35 -10 59 -42q25 -33 25 -72q0 -56 -39 -91q-43 -37 -117 -37t-116 37q-39 35 -39 91q0 41 24 72q22 31 59 42q-66 27 -66 98q0 49 36 80q33 32 102 32q67 0 105 -34zM168 773q-24 -21 -24 -56q0 -36 23 -58q28 -26 83 -26
q53 0 84 26q23 23 23 58t-24 56q-29 26 -83 26q-56 0 -82 -26zM158 573q-29 -25 -29 -68q0 -98 121 -98q60 0 94 29q28 26 28 69t-30 68q-32 31 -92 31t-92 -31z" />
    <glyph glyph-name="uni2079" unicode="&#x2079;" horiz-adv-x="500" 
d="M364 769q36 -54 36 -156q0 -100 -37 -166q-43 -70 -118 -70q-117 0 -137 119h33q18 -89 103 -89q67 0 99 76q23 58 23 136q-18 -36 -49 -58q-34 -24 -74 -24q-63 0 -103 40q-39 41 -39 103q0 65 39 107t105 42q80 0 119 -60zM165 765q-31 -32 -31 -85q0 -50 31 -81
q30 -32 80 -32q45 0 79 33q34 34 34 80q0 47 -29 81q-33 37 -84 37q-50 0 -80 -33z" />
    <glyph glyph-name="uni2080" unicode="&#x2080;" horiz-adv-x="500" 
d="M371 268q31 -59 31 -150q0 -90 -31 -150q-40 -76 -121 -76q-83 0 -121 76q-30 57 -30 150q0 94 30 151q38 75 121 75q82 0 121 -76zM133 118q0 -195 117 -195q65 0 95 63q23 52 23 132q0 81 -23 132q-30 63 -95 63q-117 0 -117 -195z" />
    <glyph glyph-name="uni2081" unicode="&#x2081;" horiz-adv-x="500" 
d="M276 336v-436h-34v389q-42 -41 -107 -60v33q69 21 113 74h28z" />
    <glyph glyph-name="uni2082" unicode="&#x2082;" horiz-adv-x="500" 
d="M351 311q38 -33 38 -91q0 -57 -43 -103q-23 -23 -92 -69q-96 -66 -108 -117h244v-31h-283q0 54 46 103q31 36 87 74q64 45 78 58q39 39 39 85q0 43 -29 67q-29 26 -75 26q-49 0 -77 -32q-31 -34 -31 -97h-33q0 78 41 120q37 40 101 40q58 0 97 -33z" />
    <glyph glyph-name="uni2083" unicode="&#x2083;" horiz-adv-x="500" 
d="M352 312q37 -34 37 -85q0 -72 -61 -99q71 -30 71 -103q0 -58 -42 -97q-42 -36 -107 -36q-53 0 -93 28q-51 38 -56 116h33q3 -61 43 -92q29 -21 73 -21q50 0 84 29q32 29 32 73q0 39 -29 63q-30 24 -75 24h-47v30h42q100 0 100 84q0 39 -27 63q-28 24 -76 24
q-98 0 -110 -104h-33q6 63 45 99q36 36 98 36t98 -32z" />
    <glyph glyph-name="uni2084" unicode="&#x2084;" horiz-adv-x="500" 
d="M306 336h40v-303h75v-29h-75v-104h-33v104h-233v28zM310 296l-192 -263h195v263h-3z" />
    <glyph glyph-name="uni2085" unicode="&#x2085;" horiz-adv-x="500" 
d="M136 336h248v-31h-219l-15 -158q41 42 103 42q63 0 105 -39q41 -39 41 -110q0 -63 -43 -106q-42 -42 -108 -42q-57 0 -97 31q-45 36 -50 98h33q5 -47 38 -74q30 -24 76 -24q51 0 85 34q32 34 32 83q0 59 -31 90q-33 30 -84 30q-73 0 -105 -63h-32z" />
    <glyph glyph-name="uni2086" unicode="&#x2086;" horiz-adv-x="500" 
d="M393 225h-33q-18 89 -103 89q-69 0 -99 -76q-23 -53 -23 -136q17 37 51 58q32 24 72 24q65 0 103 -41q39 -39 39 -102q0 -65 -39 -107q-40 -42 -105 -42q-80 0 -120 61q-35 53 -35 155q0 105 38 166q40 70 117 70q116 0 137 -119zM177 121q-34 -33 -34 -80q0 -49 29 -81
q32 -37 84 -37q50 0 80 33q31 34 31 85q0 50 -31 81q-31 32 -80 32q-46 0 -79 -33z" />
    <glyph glyph-name="uni2087" unicode="&#x2087;" horiz-adv-x="500" 
d="M108 336h285v-26l-172 -410h-36l171 404h-248v32z" />
    <glyph glyph-name="uni2088" unicode="&#x2088;" horiz-adv-x="500" 
d="M355 310q34 -31 34 -78q0 -71 -67 -98q35 -10 59 -42q25 -33 25 -72q0 -56 -39 -91q-43 -37 -117 -37t-116 37q-39 35 -39 91q0 41 24 72q22 31 59 42q-66 27 -66 98q0 49 36 79q35 33 102 33t105 -34zM168 288q-24 -21 -24 -56q0 -36 23 -58q28 -26 83 -26t84 26
q23 23 23 58t-24 56q-29 26 -83 26q-56 0 -82 -26zM158 88q-29 -25 -29 -68q0 -98 121 -98q60 0 94 29q28 26 28 69t-30 68q-32 31 -92 31t-92 -31z" />
    <glyph glyph-name="uni2089" unicode="&#x2089;" horiz-adv-x="500" 
d="M365 283q35 -55 35 -155t-37 -166q-43 -70 -118 -70q-117 0 -137 119h33q18 -89 103 -89q67 0 99 76q23 58 23 136q-18 -36 -49 -58q-34 -24 -74 -24q-64 0 -103 41q-39 39 -39 102q0 65 39 107t105 42q81 0 120 -61zM165 280q-31 -32 -31 -85q0 -50 31 -81
q30 -32 80 -32q45 0 79 33q34 34 34 80q0 47 -29 81q-33 37 -84 37q-50 0 -80 -33z" />
    <glyph glyph-name="dong" unicode="&#x20ab;" horiz-adv-x="610" 
d="M463 728h39v-95h108v-31h-108v-602h-37v121q-54 -135 -193 -135q-110 0 -172 83q-56 74 -56 189q0 114 57 189q62 84 170 84q138 0 192 -138v209h-194v31h194v95zM131 425q-48 -63 -48 -167t47 -167q52 -70 145 -70q91 0 142 68q47 64 47 161v13q0 101 -48 165
q-52 68 -140 68q-95 0 -145 -71zM167 -108h282v-32h-282v32z" />
    <glyph glyph-name="Euro" unicode="&#x20ac;" horiz-adv-x="679" 
d="M555 668q68 -60 84 -157h-40q-16 84 -72 132q-57 48 -137 48q-126 0 -190 -107q-36 -60 -48 -144h383l-9 -31h-377q-2 -16 -2 -52q0 -34 2 -51h349l-10 -31h-336q12 -82 48 -143q64 -109 190 -109q83 0 142 53q54 53 72 139h40q-19 -101 -86 -165q-70 -64 -167 -64
q-145 0 -220 120q-47 73 -59 169h-112l10 31h99q-2 17 -2 51q0 36 2 52h-109l10 31h102q12 99 59 170q75 118 219 118q96 0 165 -60z" />
    <glyph glyph-name="uni20B4" unicode="&#x20b4;" horiz-adv-x="566" 
d="M431 677q55 -49 55 -131q0 -65 -57 -118h122v-31h-164q-41 -24 -107 -59q-50 -25 -75 -40h346v-31h-392q-54 -42 -54 -95q0 -65 42 -104q44 -42 121 -42q154 0 181 168h38q-15 -96 -71 -151q-58 -53 -148 -53q-94 0 -148 51q-54 50 -54 131q0 54 37 95h-89v31h122
q30 23 138 78q21 12 39 21h-299v31h353l28 20q52 44 52 98q0 67 -42 106q-43 39 -121 39q-155 0 -181 -171h-38q15 100 71 153q54 53 148 53t147 -49z" />
    <glyph glyph-name="uni20B9" unicode="&#x20b9;" horiz-adv-x="600" 
d="M88 528h254q-6 67 -50 108q-51 47 -136 47h-73l10 31h431l-11 -31h-230q91 -52 97 -155h138l-12 -31h-125q-6 -68 -59 -112q-55 -43 -136 -52q25 -16 64 -68l198 -265h-53l-181 249q-34 46 -56 61q-32 19 -75 19v32h45q102 0 160 43q50 36 54 93h-265z" />
    <glyph glyph-name="uni2100" unicode="&#x2100;" 
d="M879 307q50 -39 60 -117h-36q-16 121 -145 121q-73 0 -115 -55q-43 -55 -43 -143q0 -84 39 -134q41 -53 118 -53q127 0 148 132h37q-27 -166 -185 -166q-94 0 -146 64q-48 60 -48 157q0 100 50 162q54 69 145 69q77 0 121 -37zM822 820h43l-687 -920h-43zM369 779
q38 -43 38 -114v-277h-36v87q-30 -39 -73 -65q-54 -33 -115 -33q-63 0 -103 32q-39 33 -39 89q0 83 68 120q52 29 148 29h113v16q0 133 -134 133q-62 0 -98 -26q-40 -28 -48 -83h-36q9 71 60 107q45 35 123 35q88 0 132 -50zM257 614q-179 0 -179 -117q0 -40 30 -64
q31 -23 80 -23q69 0 127 48q55 49 55 95v61h-113z" />
    <glyph glyph-name="uni2103" unicode="&#x2103;" horiz-adv-x="917" 
d="M225 789q35 -33 35 -83q0 -48 -35 -83t-83 -35q-50 0 -83 35q-35 34 -35 83q0 51 35 83q33 36 83 36q49 0 83 -36zM80 769q-26 -26 -26 -63q0 -36 26 -62t62 -26t62 26q26 28 26 62q0 35 -26 63q-25 26 -62 26t-62 -26zM764 668q87 -63 99 -167h-38q-12 87 -86 140
q-71 50 -164 50q-139 0 -222 -99q-76 -94 -76 -239q0 -144 76 -235q78 -95 213 -95q96 0 169 53q79 61 100 166h38q-24 -123 -112 -193q-82 -63 -195 -63q-152 0 -243 109q-85 101 -85 258q0 158 86 262q91 113 251 113q108 0 189 -60z" />
    <glyph glyph-name="uni2105" unicode="&#x2105;" 
d="M683 728h35l-401 -742h-35zM353 679q33 -33 39 -94h-36q-12 97 -105 97q-62 0 -93 -49q-28 -43 -28 -114q0 -70 28 -114q32 -50 93 -50q93 0 105 99h36q-6 -63 -38 -95q-36 -36 -103 -36q-79 0 -122 61q-36 54 -36 135q0 82 36 134q42 61 121 61q68 0 103 -35zM873 334
q34 -53 34 -138t-34 -139q-39 -57 -111 -57q-74 0 -112 57q-34 52 -34 139q0 88 34 138q38 57 112 57q72 0 111 -57zM653 196q0 -76 27 -120t82 -44q53 0 81 45q27 42 27 119q0 163 -108 163q-109 0 -109 -163z" />
    <glyph glyph-name="uni2109" unicode="&#x2109;" horiz-adv-x="850" 
d="M225 789q35 -33 35 -83q0 -48 -35 -83t-83 -35q-50 0 -83 35q-35 34 -35 83q0 51 35 83q33 36 83 36q49 0 83 -36zM80 769q-26 -26 -26 -63q0 -36 26 -62t62 -26t62 26q26 28 26 62q0 35 -26 63q-25 26 -62 26t-62 -26zM354 714h452v-36h-413v-291h388v-36h-388v-351h-39
v714z" />
    <glyph glyph-name="uni2113" unicode="&#x2113;" horiz-adv-x="562" 
d="M242 509q-64 -162 -64 -326v-12q97 44 169 110q131 125 131 300q0 112 -74 112q-93 0 -162 -184zM140 179q0 175 67 345q80 204 198 204q61 0 87 -47q21 -36 21 -99q0 -188 -142 -324q-80 -76 -190 -123q4 -29 17 -56q27 -58 83 -58q80 0 142 101l30 -18q-33 -54 -71 -83
q-49 -35 -103 -35q-73 0 -110 64q-18 31 -24 71q-46 -15 -96 -27v35q44 11 92 27q-1 8 -1 23z" />
    <glyph glyph-name="uni2116" unicode="&#x2116;" 
d="M902 518q46 -64 46 -164t-46 -167q-51 -72 -144 -72t-144 72q-46 65 -46 167t46 164q50 71 144 71t144 -71zM582 31h352v-31h-352v31zM52 714h49l355 -652h2v652h39v-714h-48l-356 653h-2v-653h-39v714zM643 494q-37 -52 -37 -140q0 -90 37 -143q40 -61 115 -61
q73 0 116 61q36 54 36 143q0 88 -36 140q-42 60 -116 60q-76 0 -115 -60z" />
    <glyph glyph-name="uni2117" unicode="&#x2117;" horiz-adv-x="802" 
d="M664 620q108 -108 108 -263q0 -153 -108 -263q-109 -108 -263 -108q-155 0 -263 108q-108 110 -108 263q0 155 108 263t263 108q154 0 263 -108zM160 598q-100 -99 -100 -241q0 -141 100 -241t241 -100q139 0 241 100q100 102 100 241q0 141 -100 241t-241 100
q-142 0 -241 -100zM263 578h180q144 0 144 -124t-144 -124h-144v-194h-36v442zM299 545v-182h146q55 0 83 26q24 23 24 66q0 90 -107 90h-146z" />
    <glyph glyph-name="uni2121" unicode="&#x2121;" 
d="M707 728h35v-367h246v-33h-281v400zM373 728h293v-33h-258v-146h246v-32h-246v-156h267v-33h-302v400zM13 728h328v-33h-146v-367h-36v367h-146v33z" />
    <glyph glyph-name="trademark" unicode="&#x2122;" horiz-adv-x="880" 
d="M403 728h50l160 -361h3l160 361h50v-400h-34v353h-3l-156 -353h-37l-156 353h-3v-353h-34v400zM24 728h332v-33h-149v-367h-34v367h-149v33z" />
    <glyph glyph-name="Omega" unicode="&#x2126;" horiz-adv-x="718" 
d="M585 629q89 -98 89 -245q0 -236 -187 -348h182v-36h-238v42q94 48 146 125q58 90 58 217q0 133 -79 221q-80 86 -197 86q-119 0 -196 -86q-80 -86 -80 -221q0 -129 58 -217q50 -75 146 -125v-42h-238v36h183q-188 110 -188 348q0 149 89 245q90 99 226 99t226 -99z" />
    <glyph glyph-name="uni212B" unicode="&#x212b;" horiz-adv-x="629" 
d="M373 883q25 -27 25 -59q0 -33 -25 -58q-24 -24 -57 -24q-35 0 -59 24t-24 58t24 59q24 24 59 24q33 0 57 -24zM274 866q-18 -16 -18 -42q0 -23 18 -41q17 -17 42 -17q23 0 41 16q17 19 17 42q0 25 -17 42q-19 17 -41 17q-25 0 -42 -17zM291 714h48l290 -714h-43l-90 226
h-361l-91 -226h-44zM149 262h333l-165 410h-3z" />
    <glyph glyph-name="estimated" unicode="&#x212e;" horiz-adv-x="814" 
d="M658 541q102 -96 102 -235v-21h-629v-151q42 -66 115 -105q73 -38 161 -38q96 0 176 47q80 49 121 131h31q-46 -97 -132 -151q-92 -55 -196 -55q-148 0 -249 93q-104 95 -104 243q0 149 104 244q100 94 249 94t251 -96zM246 571q-73 -37 -115 -106v-152h553v150
q-42 67 -115 107q-73 39 -162 39q-91 0 -161 -38z" />
    <glyph glyph-name="uni2150" unicode="&#x2150;" 
d="M243 821v-436h-33v389q-42 -40 -107 -60v33q69 22 113 74h27zM822 820h43l-687 -920h-43zM654 336h285v-26l-172 -410h-36l171 404h-248v32z" />
    <glyph glyph-name="uni2151" unicode="&#x2151;" 
d="M243 821v-436h-33v389q-42 -40 -107 -60v33q69 22 113 74h27zM822 820h43l-687 -920h-43zM894 283q35 -55 35 -155q0 -101 -38 -166q-43 -70 -117 -70q-117 0 -137 119h33q18 -89 103 -89q67 0 99 76q22 58 23 136q-18 -36 -49 -58q-34 -24 -74 -24q-64 0 -103 41
q-39 39 -39 102q0 65 39 107t105 42q81 0 120 -61zM694 280q-31 -32 -31 -85q0 -50 31 -81q30 -32 80 -32q45 0 79 33q34 34 34 80q0 47 -29 81q-33 37 -84 37q-50 0 -80 -33z" />
    <glyph glyph-name="uni2152" unicode="&#x2152;" 
d="M243 821v-436h-33v389q-42 -40 -107 -60v33q69 22 113 74h27zM770 820h43l-645 -920h-43zM633 336v-436h-34v389q-37 -37 -90 -55v33q57 23 96 69h28zM952 267q27 -60 27 -149q0 -87 -28 -149q-36 -77 -106 -77q-71 0 -106 77q-27 60 -27 149q0 90 28 149q33 77 106 77
q70 0 106 -77zM766 250q-21 -51 -21 -132t22 -132q26 -63 79 -63q52 0 79 63q21 53 21 132q0 77 -22 132q-27 63 -79 63q-53 0 -79 -63z" />
    <glyph glyph-name="onethird" unicode="&#x2153;" 
d="M880 312q37 -34 37 -85q0 -72 -61 -99q71 -30 71 -103q0 -58 -42 -97q-42 -36 -107 -36q-54 0 -93 28q-51 38 -56 116h33q3 -62 43 -92q29 -21 73 -21q50 0 84 29q31 29 31 73q0 38 -28 63q-30 24 -75 24h-47v30h42q99 0 99 84q0 39 -27 63q-28 24 -75 24
q-98 0 -110 -104h-34q8 63 45 99q38 36 99 36q60 0 98 -32zM822 820h43l-687 -920h-43zM243 821v-436h-33v389q-42 -40 -107 -60v33q69 22 113 74h27z" />
    <glyph glyph-name="twothirds" unicode="&#x2154;" 
d="M880 312q37 -34 37 -85q0 -72 -61 -99q71 -30 71 -103q0 -58 -42 -97q-42 -36 -107 -36q-54 0 -93 28q-51 38 -56 116h33q3 -62 43 -92q29 -21 73 -21q50 0 84 29q31 29 31 73q0 38 -28 63q-30 24 -75 24h-47v30h42q99 0 99 84q0 39 -27 63q-28 24 -75 24
q-98 0 -110 -104h-34q8 63 45 99q38 36 99 36q60 0 98 -32zM822 820h43l-687 -920h-43zM331 795q38 -33 38 -90t-44 -103q-22 -22 -91 -69q-97 -66 -109 -117h245v-31h-283q0 54 45 103q31 36 87 74q63 44 79 58q38 40 38 85q0 42 -28 67q-29 26 -75 26q-51 0 -77 -32
q-31 -32 -31 -97h-34q0 76 41 120q37 40 101 40q60 0 98 -34z" />
    <glyph glyph-name="uni2155" unicode="&#x2155;" 
d="M243 821v-436h-33v389q-42 -40 -107 -60v33q69 22 113 74h27zM822 820h43l-687 -920h-43zM664 336h248v-31h-219l-15 -158q41 42 104 42t105 -39q40 -40 40 -110q0 -63 -43 -106q-42 -42 -108 -42q-57 0 -97 31q-45 36 -50 98h34q5 -47 37 -74q30 -24 76 -24q50 0 86 34
q32 34 32 83q0 60 -32 90q-33 30 -84 30q-72 0 -105 -63h-32z" />
    <glyph glyph-name="uni2156" unicode="&#x2156;" 
d="M331 795q38 -33 38 -90t-44 -103q-22 -22 -91 -69q-97 -66 -109 -117h245v-31h-283q0 54 45 103q31 36 87 74q63 44 79 58q38 40 38 85q0 42 -28 67q-29 26 -75 26q-51 0 -77 -32q-31 -32 -31 -97h-34q0 76 41 120q37 40 101 40q60 0 98 -34zM822 820h43l-687 -920h-43z
M664 336h248v-31h-219l-15 -158q41 42 104 42t105 -39q40 -40 40 -110q0 -63 -43 -106q-42 -42 -108 -42q-57 0 -97 31q-45 36 -50 98h34q5 -47 37 -74q30 -24 76 -24q50 0 86 34q32 34 32 83q0 60 -32 90q-33 30 -84 30q-72 0 -105 -63h-32z" />
    <glyph glyph-name="uni2157" unicode="&#x2157;" 
d="M324 796q37 -32 37 -84q0 -72 -61 -99q71 -30 71 -103q0 -58 -42 -96q-43 -37 -107 -37q-53 0 -93 28q-51 38 -56 116h33q3 -61 43 -92q29 -21 73 -21q50 0 84 28q32 30 32 74q0 39 -29 63q-30 24 -75 24h-47v30h42q100 0 100 84q0 39 -27 63q-28 24 -76 24
q-98 0 -110 -104h-33q6 64 45 100q35 35 98 35q61 0 98 -33zM822 820h43l-687 -920h-43zM664 336h248v-31h-219l-15 -158q41 42 104 42t105 -39q40 -40 40 -110q0 -63 -43 -106q-42 -42 -108 -42q-57 0 -97 31q-45 36 -50 98h34q5 -47 37 -74q30 -24 76 -24q50 0 86 34
q32 34 32 83q0 60 -32 90q-33 30 -84 30q-72 0 -105 -63h-32z" />
    <glyph glyph-name="uni2158" unicode="&#x2158;" 
d="M277 821h39v-303h75v-29h-75v-104h-32v104h-234v28zM280 781l-192 -263h196v263h-4zM822 820h43l-687 -920h-43zM664 336h248v-31h-219l-15 -158q41 42 104 42t105 -39q40 -40 40 -110q0 -63 -43 -106q-42 -42 -108 -42q-57 0 -97 31q-45 36 -50 98h34q5 -47 37 -74
q30 -24 76 -24q50 0 86 34q32 34 32 83q0 60 -32 90q-33 30 -84 30q-72 0 -105 -63h-32z" />
    <glyph glyph-name="uni2159" unicode="&#x2159;" 
d="M243 821v-436h-33v389q-42 -40 -107 -60v33q69 22 113 74h27zM822 820h43l-687 -920h-43zM918 225h-33q-18 89 -103 89q-69 0 -99 -76q-23 -53 -23 -136q17 37 50 58q33 24 73 24q65 0 103 -41q39 -39 39 -102q0 -65 -39 -107q-40 -42 -105 -42q-80 0 -120 61
q-35 53 -35 155q0 105 38 166q40 70 117 70q116 0 137 -119zM702 121q-34 -33 -34 -80q0 -49 29 -81q32 -37 84 -37q50 0 80 33q31 34 31 85q0 50 -31 81q-31 32 -80 32q-46 0 -79 -33z" />
    <glyph glyph-name="uni215A" unicode="&#x215a;" 
d="M106 821h248v-31h-219l-15 -158q41 42 104 42t105 -39q41 -39 41 -110q0 -64 -44 -106q-42 -42 -108 -42q-57 0 -97 31q-44 35 -50 98h34q5 -47 37 -74q30 -24 76 -24q52 0 86 33q32 35 32 84q0 59 -32 89q-32 31 -83 31q-73 0 -106 -63h-31zM822 820h43l-687 -920h-43z
M918 225h-33q-18 89 -103 89q-69 0 -99 -76q-23 -53 -23 -136q17 37 50 58q33 24 73 24q65 0 103 -41q39 -39 39 -102q0 -65 -39 -107q-40 -42 -105 -42q-80 0 -120 61q-35 53 -35 155q0 105 38 166q40 70 117 70q116 0 137 -119zM702 121q-34 -33 -34 -80q0 -49 29 -81
q32 -37 84 -37q50 0 80 33q31 34 31 85q0 50 -31 81q-31 32 -80 32q-46 0 -79 -33z" />
    <glyph glyph-name="oneeighth" unicode="&#x215b;" 
d="M882 310q34 -31 34 -78q0 -71 -67 -98q36 -10 60 -42q24 -31 24 -72q0 -56 -39 -91q-43 -37 -117 -37t-116 37q-39 35 -39 91q0 41 24 72q22 31 59 42q-66 27 -66 98q0 50 35 79q36 33 103 33t105 -34zM822 820h43l-687 -920h-43zM243 821v-436h-33v389q-42 -40 -107 -60
v33q69 22 113 74h27zM695 288q-24 -21 -24 -56q0 -36 23 -58q28 -26 83 -26t84 26q23 23 23 58t-24 56q-27 26 -83 26t-82 -26zM685 88q-29 -25 -29 -68q0 -98 121 -98q60 0 94 29q28 26 28 69q0 42 -29 68q-32 31 -93 31q-60 0 -92 -31z" />
    <glyph glyph-name="threeeighths" unicode="&#x215c;" 
d="M882 310q34 -31 34 -78q0 -71 -67 -98q36 -10 60 -42q24 -31 24 -72q0 -56 -39 -91q-43 -37 -117 -37t-116 37q-39 35 -39 91q0 41 24 72q22 31 59 42q-66 27 -66 98q0 50 35 79q36 33 103 33t105 -34zM822 820h43l-687 -920h-43zM324 796q37 -32 37 -84q0 -72 -61 -99
q71 -30 71 -103q0 -58 -42 -96q-43 -37 -107 -37q-53 0 -93 28q-51 38 -56 116h33q3 -61 43 -92q29 -21 73 -21q50 0 84 28q32 30 32 74q0 39 -29 63q-30 24 -75 24h-47v30h42q100 0 100 84q0 39 -27 63q-28 24 -76 24q-98 0 -110 -104h-33q6 64 45 100q35 35 98 35
q61 0 98 -33zM695 288q-24 -21 -24 -56q0 -36 23 -58q28 -26 83 -26t84 26q23 23 23 58t-24 56q-27 26 -83 26t-82 -26zM685 88q-29 -25 -29 -68q0 -98 121 -98q60 0 94 29q28 26 28 69q0 42 -29 68q-32 31 -93 31q-60 0 -92 -31z" />
    <glyph glyph-name="fiveeighths" unicode="&#x215d;" 
d="M882 310q34 -31 34 -78q0 -71 -67 -98q36 -10 60 -42q24 -31 24 -72q0 -56 -39 -91q-43 -37 -117 -37t-116 37q-39 35 -39 91q0 41 24 72q22 31 59 42q-66 27 -66 98q0 50 35 79q36 33 103 33t105 -34zM822 820h43l-687 -920h-43zM111 821h249v-31h-219l-15 -158
q41 42 103 42q63 0 105 -39q41 -39 41 -110q0 -64 -44 -106q-42 -42 -107 -42q-57 0 -97 31q-45 36 -50 98h33q5 -47 38 -74q30 -24 76 -24q52 0 85 33q32 35 32 84q0 58 -31 89q-32 31 -84 31q-73 0 -106 -63h-31zM695 288q-24 -21 -24 -56q0 -36 23 -58q28 -26 83 -26
t84 26q23 23 23 58t-24 56q-27 26 -83 26t-82 -26zM685 88q-29 -25 -29 -68q0 -98 121 -98q60 0 94 29q28 26 28 69q0 42 -29 68q-32 31 -93 31q-60 0 -92 -31z" />
    <glyph glyph-name="seveneighths" unicode="&#x215e;" 
d="M882 310q34 -31 34 -78q0 -71 -67 -98q36 -10 60 -42q24 -31 24 -72q0 -56 -39 -91q-43 -37 -117 -37t-116 37q-39 35 -39 91q0 41 24 72q22 31 59 42q-66 27 -66 98q0 50 35 79q36 33 103 33t105 -34zM822 820h43l-687 -920h-43zM108 821h285v-26l-172 -410h-36l171 404
h-248v32zM695 288q-24 -21 -24 -56q0 -36 23 -58q28 -26 83 -26t84 26q23 23 23 58t-24 56q-27 26 -83 26t-82 -26zM685 88q-29 -25 -29 -68q0 -98 121 -98q60 0 94 29q28 26 28 69q0 42 -29 68q-32 31 -93 31q-60 0 -92 -31z" />
    <glyph glyph-name="uni2160" unicode="&#x2160;" 
d="M481 714h39v-714h-39v714z" />
    <glyph glyph-name="uni2161" unicode="&#x2161;" 
d="M359 714h39v-714h-39v714zM602 714h39v-714h-39v714z" />
    <glyph glyph-name="uni2162" unicode="&#x2162;" 
d="M246 714h39v-714h-39v714zM481 714h39v-714h-39v714zM715 714h39v-714h-39v714z" />
    <glyph glyph-name="uni2163" unicode="&#x2163;" 
d="M156 714h39v-714h-39v714zM318 714h44l236 -672h1l236 672h44l-254 -714h-52z" />
    <glyph glyph-name="uni2164" unicode="&#x2164;" 
d="M198 714h45l256 -676h2l257 676h44l-276 -714h-52z" />
    <glyph glyph-name="uni2165" unicode="&#x2165;" 
d="M121 714h44l236 -672h2l235 672h44l-254 -714h-52zM805 714h39v-714h-39v714z" />
    <glyph glyph-name="uni2166" unicode="&#x2166;" 
d="M51 714h45l210 -663h2l210 663h45l-233 -714h-47zM660 714h39v-714h-39v714zM833 714h39v-714h-39v714z" />
    <glyph glyph-name="uni2167" unicode="&#x2167;" 
d="M34 714h44l173 -657h2l175 657h44l-196 -714h-47zM568 714h38v-714h-38v714zM719 714h38v-714h-38v714zM871 714h38v-714h-38v714z" />
    <glyph glyph-name="uni2168" unicode="&#x2168;" 
d="M139 714h41v-714h-41v714zM325 714h49l225 -309l224 309h50l-250 -342l273 -372h-50l-247 341l-247 -341h-50l272 372z" />
    <glyph glyph-name="uni2169" unicode="&#x2169;" 
d="M226 714h50l224 -310l224 310h50l-250 -342l273 -372h-50l-247 342l-247 -342h-50l273 372z" />
    <glyph glyph-name="uni216A" unicode="&#x216a;" 
d="M127 714h50l224 -310l225 310h49l-250 -342l273 -372h-50l-247 342l-247 -342h-50l273 372zM820 714h41v-714h-41v714z" />
    <glyph glyph-name="uni216B" unicode="&#x216b;" 
d="M68 714h49l190 -305l191 305h50l-216 -343l234 -371h-49l-210 334l-209 -334h-49l234 371zM675 714h40v-714h-40v714zM847 714h41v-714h-41v714z" />
    <glyph glyph-name="uni2170" unicode="&#x2170;" 
d="M529 681q11 -11 11 -28q0 -15 -11 -28q-12 -12 -29 -12t-29 12q-11 11 -11 28q0 18 11 28q12 12 29 12t29 -12zM481 517h38v-517h-38v517z" />
    <glyph glyph-name="uni2171" unicode="&#x2171;" 
d="M408 681q12 -10 12 -28q0 -16 -12 -28t-29 -12q-16 0 -28 12t-12 28q0 18 12 28q12 12 28 12q17 0 29 -12zM649 681q12 -10 12 -28q0 -16 -12 -28t-28 -12q-17 0 -28 12q-12 12 -12 28q0 18 12 28q11 12 28 12q16 0 28 -12zM360 517h39v-517h-39v517zM601 517h39v-517
h-39v517z" />
    <glyph glyph-name="uni2172" unicode="&#x2172;" 
d="M308 681q11 -11 11 -28q0 -16 -12 -28t-29 -12q-16 0 -28 12t-12 28q0 18 12 28q12 12 28 12q18 0 30 -12zM529 681q11 -11 11 -28q0 -15 -11 -28q-12 -12 -29 -12t-29 12q-11 11 -11 28q0 18 11 28q12 12 29 12t29 -12zM751 681q11 -11 11 -28q0 -15 -11 -28
q-12 -12 -29 -12t-29 12q-11 11 -11 28q0 18 11 28q12 12 29 12t29 -12zM259 517h39v-517h-39v517zM481 517h38v-517h-38v517zM702 517h39v-517h-39v517z" />
    <glyph glyph-name="uni2173" unicode="&#x2173;" 
d="M257 681q11 -11 11 -28q0 -15 -11 -28q-12 -12 -29 -12t-29 12t-12 28q0 18 12 28q12 12 29 12t29 -12zM208 517h39v-517h-39v517zM385 517h44l177 -467l178 467h44l-201 -517h-41z" />
    <glyph glyph-name="uni2174" unicode="&#x2174;" 
d="M279 517h43l178 -467l178 467h43l-200 -517h-42z" />
    <glyph glyph-name="uni2175" unicode="&#x2175;" 
d="M172 517h43l178 -467l178 467h43l-200 -517h-42zM802 681q12 -10 12 -28q0 -16 -12 -28t-29 -12q-16 0 -28 12t-12 28q0 18 12 28q12 12 28 12q17 0 29 -12zM754 517h39v-517h-39v517z" />
    <glyph glyph-name="uni2176" unicode="&#x2176;" 
d="M675 681q12 -10 12 -28q0 -16 -12 -28t-28 -12q-17 0 -28 12q-12 12 -12 28q0 18 12 28q11 12 28 12q16 0 28 -12zM847 681q12 -10 12 -28q0 -15 -13 -28q-12 -12 -28 -12q-17 0 -28 12q-12 12 -12 28q0 18 12 28q11 12 28 12t29 -12zM69 517h43l178 -467l178 467h43
l-200 -517h-42zM628 517h38v-517h-38v517zM799 517h39v-517h-39v517z" />
    <glyph glyph-name="uni2177" unicode="&#x2177;" 
d="M577 681q11 -11 11 -28q0 -15 -11 -28q-12 -12 -29 -12t-29 12q-10 11 -10 28q0 18 10 28q12 12 29 12t29 -12zM725 681q12 -10 12 -28q0 -16 -12 -28t-28 -12q-18 0 -27 12q-12 12 -12 28q0 18 12 28q9 12 27 12q16 0 28 -12zM875 681q11 -11 11 -28q0 -15 -11 -28
q-12 -12 -29 -12t-28 12q-11 11 -11 28q0 18 11 28q11 12 28 12t29 -12zM55 517h42l152 -460l152 460h42l-174 -517h-40zM529 517h38v-517h-38v517zM678 517h38v-517h-38v517zM827 517h38v-517h-38v517z" />
    <glyph glyph-name="uni2178" unicode="&#x2178;" 
d="M250 681q12 -10 12 -28q0 -16 -12 -28t-28 -12q-17 0 -28 12q-12 12 -12 28q0 18 12 28q11 12 28 12q16 0 28 -12zM203 517h38v-517h-38v517zM386 517h47l165 -215l164 215h47l-188 -245l209 -272h-47l-185 243l-186 -243h-47l210 272z" />
    <glyph glyph-name="uni2179" unicode="&#x2179;" 
d="M289 517h47l164 -215l164 215h48l-188 -245l209 -272h-48l-185 243l-185 -243h-48l210 272z" />
    <glyph glyph-name="uni2189" unicode="&#x2189;" 
d="M371 753q31 -59 31 -150q0 -90 -31 -150q-40 -76 -121 -76q-83 0 -121 76q-30 57 -30 150q0 94 30 151q38 75 121 75q82 0 121 -76zM133 603q0 -195 117 -195q65 0 95 63q23 52 23 132q0 81 -23 132q-30 63 -95 63q-117 0 -117 -195zM822 820h43l-687 -920h-43zM880 312
q37 -34 37 -85q0 -72 -61 -99q71 -30 71 -103q0 -57 -43 -97q-42 -36 -106 -36q-54 0 -93 28q-51 37 -57 116h33q3 -62 44 -92q29 -21 73 -21q49 0 83 29q32 29 32 73q0 38 -28 63q-30 24 -76 24h-46v30h41q100 0 100 84q0 39 -27 63q-28 24 -75 24q-99 0 -111 -104h-33
q8 63 45 99q36 36 99 36q60 0 98 -32z" />
    <glyph glyph-name="arrowleft" unicode="&#x2190;" 
d="M243 564l21 -23l-174 -164h888v-34h-888l174 -164l-21 -23l-221 204z" />
    <glyph glyph-name="arrowup" unicode="&#x2191;" 
d="M500 838l204 -221l-23 -21l-164 174v-888h-34v888l-164 -174l-23 21z" />
    <glyph glyph-name="arrowright" unicode="&#x2192;" 
d="M757 564l221 -204l-221 -204l-21 23l174 164h-888v34h888l-174 164z" />
    <glyph glyph-name="arrowdown" unicode="&#x2193;" 
d="M483 838h34v-888l164 174l23 -21l-204 -221l-204 221l23 21l164 -174v888z" />
    <glyph glyph-name="uni2196" unicode="&#x2196;" 
d="M126 734l301 -12l-2 -31l-239 6l688 -687l-24 -24l-687 688l6 -239l-31 -2z" />
    <glyph glyph-name="uni2197" unicode="&#x2197;" 
d="M874 734l-12 -301l-31 2l6 239l-687 -688l-24 24l688 687l-239 -6l-2 31z" />
    <glyph glyph-name="uni2198" unicode="&#x2198;" 
d="M150 734l687 -688l-6 239l31 2l12 -301l-301 12l2 31l239 -6l-688 687z" />
    <glyph glyph-name="uni2199" unicode="&#x2199;" 
d="M850 734l24 -24l-688 -687l239 6l2 -31l-301 -12l12 301l31 -2l-6 -239z" />
    <glyph glyph-name="partialdiff" unicode="&#x2202;" horiz-adv-x="601" 
d="M507 657q50 -64 50 -161q0 -174 -74 -325q-92 -185 -250 -185q-83 0 -136 55q-53 53 -53 142q0 111 68 186q69 81 181 81q80 0 137 -66q38 -47 55 -106q33 105 33 217q0 85 -42 139q-44 59 -122 59q-102 0 -165 -73l-24 28q73 80 191 80q98 0 151 -71zM463 220
q-14 68 -42 116q-49 80 -129 80q-93 0 -152 -71q-57 -66 -57 -162q0 -72 43 -116q43 -46 106 -46q137 0 220 175z" />
    <glyph glyph-name="Delta" unicode="&#x2206;" horiz-adv-x="629" 
d="M292 714h46l277 -714h-601zM315 668l-244 -631h488z" />
    <glyph glyph-name="element" unicode="&#x2208;" horiz-adv-x="792" 
d="M708 621v-35h-344q-109 0 -172 -51q-68 -54 -72 -160h588v-35h-588q5 -106 72 -162q63 -51 172 -51h344v-35h-344q-125 0 -198 62q-82 70 -82 203q0 135 82 202q71 62 198 62h344z" />
    <glyph glyph-name="product" unicode="&#x220f;" horiz-adv-x="692" 
d="M74 714h544v-714h-39v678h-466v-678h-39v714z" />
    <glyph glyph-name="summation" unicode="&#x2211;" horiz-adv-x="585" 
d="M37 714h502v-36h-459l282 -305l-290 -337h483v-36h-526v45l282 327l-274 296v46z" />
    <glyph glyph-name="minus" unicode="&#x2212;" horiz-adv-x="824" 
d="M50 379h724v-38h-724v38z" />
    <glyph glyph-name="uni2215" unicode="&#x2215;" horiz-adv-x="770" 
d="M707 820h43l-687 -920h-43z" />
    <glyph glyph-name="uni2219" unicode="&#x2219;" horiz-adv-x="398" 
d="M270 431q28 -30 28 -70q0 -39 -28 -70q-31 -29 -71 -29q-41 0 -70 29t-29 70q0 42 29 70q28 29 70 29t71 -29z" />
    <glyph glyph-name="radical" unicode="&#x221a;" 
d="M445 860h544v-32h-520l-234 -847l-130 272l-77 -59l-17 25l129 100l98 -204z" />
    <glyph glyph-name="proportional" unicode="&#x221d;" horiz-adv-x="947" 
d="M356 492q48 -33 132 -111q88 82 132 112q71 49 128 49q96 0 145 -77l-29 -21q-39 63 -115 63q-50 0 -114 -46q-45 -30 -121 -103q79 -74 122 -104q65 -47 113 -47q75 0 115 64l29 -21q-49 -78 -145 -78q-55 0 -128 50q-48 32 -133 111q-80 -76 -132 -112
q-73 -49 -128 -49q-76 0 -125 52q-48 54 -48 133q0 81 48 133t125 52q55 0 129 -50zM128 465q-39 -42 -39 -108t39 -108q38 -42 99 -42q47 0 114 47q42 30 121 103q-75 70 -122 103q-65 47 -113 47q-61 0 -99 -42z" />
    <glyph glyph-name="infinity" unicode="&#x221e;" horiz-adv-x="976" 
d="M368 493q45 -33 119 -110q66 69 111 103q72 56 132 56q87 0 140 -52q52 -52 52 -133t-52 -133q-55 -52 -140 -52q-55 0 -122 50q-43 31 -121 110q-77 -78 -120 -110q-68 -50 -121 -50q-85 0 -139 52q-53 50 -53 133t53 133q52 52 139 52q54 0 122 -49zM622 460
q-44 -34 -109 -103q71 -74 110 -103q61 -47 107 -47q70 0 114 41q43 43 43 109t-43 109q-42 41 -114 41q-49 0 -108 -47zM131 466q-42 -42 -42 -109t42 -109q43 -41 115 -41q48 0 118 55q37 30 98 96q-70 73 -109 103q-61 46 -107 46q-74 0 -115 -41z" />
    <glyph glyph-name="orthogonal" unicode="&#x221f;" horiz-adv-x="812" 
d="M104 680h35v-609h589v-35h-624v644z" />
    <glyph glyph-name="angle" unicode="&#x2220;" horiz-adv-x="793" 
d="M572 680h45l-463 -609h555v-35h-625z" />
    <glyph glyph-name="uni2223" unicode="&#x2223;" horiz-adv-x="333" 
d="M149 860h36v-1000h-36v1000z" />
    <glyph glyph-name="uni2225" unicode="&#x2225;" horiz-adv-x="657" 
d="M541 775h32l-222 -830h-32zM306 775h33l-222 -830h-33z" />
    <glyph glyph-name="logicaland" unicode="&#x2227;" horiz-adv-x="730" 
d="M345 680h41l280 -644h-39l-262 603l-262 -603h-39z" />
    <glyph glyph-name="logicalor" unicode="&#x2228;" horiz-adv-x="730" 
d="M64 680h39l262 -603l262 603h39l-280 -644h-41z" />
    <glyph glyph-name="intersection" unicode="&#x2229;" horiz-adv-x="675" 
d="M531 596q59 -74 59 -208v-353h-35v353q0 256 -218 256t-218 -256v-353h-35v353q0 133 60 208q64 83 193 83t194 -83z" />
    <glyph glyph-name="union" unicode="&#x222a;" horiz-adv-x="675" 
d="M84 679h35v-353q0 -256 218 -256t218 256v353h35v-353q0 -132 -59 -208q-66 -83 -194 -83t-193 83q-60 75 -60 208v353z" />
    <glyph glyph-name="integral" unicode="&#x222b;" horiz-adv-x="478" 
d="M394 688h-35q-9 97 -74 97q-69 0 -69 -126q0 -96 42 -299q42 -198 42 -293q0 -67 -20 -110q-27 -56 -87 -56q-98 0 -109 131h36q8 -97 74 -97q70 0 70 126q0 67 -18 175q-19 98 -30 166q-18 103 -23 135q-11 73 -8 137q6 145 101 145q96 0 108 -131z" />
    <glyph glyph-name="uni222E" unicode="&#x222e;" horiz-adv-x="522" 
d="M261 538q73 0 125 -52t52 -125q0 -71 -52 -125q-33 -33 -75 -45q11 -79 11 -123q0 -67 -20 -110q-27 -56 -87 -56q-97 0 -108 131h35q8 -97 74 -97q71 0 71 126q0 46 -11 123l-15 -1q-73 0 -125 52t-52 125q0 74 52 125q33 34 80 47q-1 2 -1 5q-11 80 -8 137
q6 145 102 145q95 0 107 -131h-34q-9 97 -74 97q-70 0 -70 -126q0 -51 10 -122h13zM253 506q9 -64 27 -146q18 -89 26 -137q31 10 58 36q42 42 42 102t-42 102q-43 43 -103 43h-8zM272 216l-4 21q-20 107 -29 166q-12 66 -17 98q-35 -9 -63 -38q-43 -42 -43 -102t43 -102
q43 -43 102 -43h11z" />
    <glyph glyph-name="therefore" unicode="&#x2234;" horiz-adv-x="842" 
d="M450 702q11 -11 11 -28q0 -15 -11 -28q-12 -12 -29 -12t-28 12q-12 12 -12 28q0 18 12 28q11 12 28 12t29 -12zM747 68q11 -11 11 -28q0 -15 -11 -28q-12 -12 -29 -12t-29 12q-11 11 -11 28q0 18 11 28q12 12 29 12t29 -12zM153 68q11 -11 11 -28q0 -15 -11 -28
q-12 -12 -29 -12t-29 12q-11 11 -11 28q0 18 11 28q12 12 29 12t29 -12z" />
    <glyph glyph-name="uni2235" unicode="&#x2235;" horiz-adv-x="842" 
d="M153 702q11 -11 11 -28q0 -15 -11 -28q-12 -12 -29 -12t-29 12q-11 11 -11 28q0 18 11 28q12 12 29 12t29 -12zM747 702q11 -11 11 -28q0 -15 -11 -28q-12 -12 -29 -12t-29 12q-11 11 -11 28q0 18 11 28q12 12 29 12t29 -12zM450 68q11 -11 11 -28q0 -15 -11 -28
q-12 -12 -29 -12t-28 12q-12 12 -12 28q0 18 12 28q11 12 28 12t29 -12z" />
    <glyph glyph-name="uni2236" unicode="&#x2236;" horiz-adv-x="500" 
d="M279 702q11 -11 11 -28q0 -15 -11 -28q-12 -12 -29 -12t-29 12q-11 11 -11 28q0 18 11 28q12 12 29 12t29 -12zM279 68q11 -11 11 -28q0 -15 -11 -28q-12 -12 -29 -12t-29 12q-11 11 -11 28q0 18 11 28q12 12 29 12t29 -12z" />
    <glyph glyph-name="uni2237" unicode="&#x2237;" horiz-adv-x="749" 
d="M153 702q11 -11 11 -28q0 -15 -11 -28q-12 -12 -29 -12t-29 12q-11 11 -11 28q0 18 11 28q12 12 29 12t29 -12zM153 68q11 -11 11 -28q0 -15 -11 -28q-12 -12 -29 -12t-29 12q-11 11 -11 28q0 18 11 28q12 12 29 12t29 -12zM653 702q11 -11 11 -28q0 -15 -11 -28
q-12 -12 -29 -12t-29 12q-11 11 -11 28q0 18 11 28q12 12 29 12t29 -12zM653 68q11 -11 11 -28q0 -15 -11 -28q-12 -12 -29 -12t-29 12q-11 11 -11 28q0 18 11 28q12 12 29 12t29 -12z" />
    <glyph glyph-name="uni223D" unicode="&#x223d;" horiz-adv-x="975" 
d="M362 494l-23 -28q-57 41 -112 41q-61 0 -99 -42q-39 -42 -39 -108t39 -108q38 -42 99 -42q64 0 166 87q118 108 178 161q105 87 177 87q76 0 125 -52q48 -52 48 -133q0 -79 -48 -133q-50 -52 -125 -52q-70 0 -135 48l22 28q59 -41 113 -41q60 0 99 42t39 108t-39 108
t-99 42q-63 0 -165 -87l-179 -161q-105 -87 -177 -87q-76 0 -125 52q-48 54 -48 133q0 81 48 133t125 52q72 0 135 -48z" />
    <glyph glyph-name="approxequal" unicode="&#x2248;" horiz-adv-x="779" 
d="M392 478q92 -55 138 -55q68 0 139 94l26 -22q-40 -51 -72 -76q-43 -31 -93 -31q-54 0 -146 55q-90 56 -140 56q-72 0 -134 -89l-26 21q34 50 69 73q42 30 91 30q60 0 148 -56zM392 271q91 -56 138 -56q67 0 139 95l26 -23q-40 -51 -72 -76q-43 -31 -93 -31q-55 0 -146 56
q-90 56 -140 56q-71 0 -134 -90l-26 22q34 50 69 73q42 30 91 30q60 0 148 -56z" />
    <glyph glyph-name="uni224C" unicode="&#x224c;" horiz-adv-x="792" 
d="M329 633l-20 -26q-38 26 -85 26t-77 -33q-29 -32 -29 -82t29 -82q29 -31 78 -31q35 0 82 41q24 22 80 87q52 61 87 91q51 42 91 42q61 0 103 -42q40 -43 40 -105t-40 -105q-40 -42 -103 -42q-60 0 -104 36l20 27q36 -30 85 -30q48 0 78 33t30 81q0 51 -30 82
q-29 32 -79 32q-48 0 -139 -109q-56 -65 -89 -97q-63 -55 -112 -55q-63 0 -101 42q-40 41 -40 104q0 64 39 106t102 42q61 0 104 -33zM84 283h624v-36h-624v36zM84 106h624v-36h-624v36z" />
    <glyph glyph-name="uni2252" unicode="&#x2252;" horiz-adv-x="792" 
d="M84 484h624v-36h-624v36zM84 271h624v-35h-624v35zM203 702q11 -11 11 -28q0 -15 -11 -28q-12 -12 -29 -12t-29 12q-11 11 -11 28q0 18 11 28q12 12 29 12t29 -12zM648 68q11 -11 11 -28q0 -15 -11 -28q-12 -12 -29 -12t-29 12q-11 11 -11 28q0 18 11 28q12 12 29 12
t29 -12z" />
    <glyph glyph-name="notequal" unicode="&#x2260;" horiz-adv-x="792" 
d="M506 680h38l-79 -197h243v-35h-257l-72 -179h329v-35h-343l-79 -198h-38l79 198h-243v35h257l72 179h-329v35h343z" />
    <glyph glyph-name="equivalence" unicode="&#x2261;" horiz-adv-x="792" 
d="M84 591h624v-35h-624v35zM84 377h624v-35h-624v35zM84 163h624v-35h-624v35z" />
    <glyph glyph-name="lessequal" unicode="&#x2264;" horiz-adv-x="792" 
d="M708 644v-38l-580 -194l580 -195v-38l-624 210v45zM84 299l624 -210v-36l-624 210v36z" />
    <glyph glyph-name="greaterequal" unicode="&#x2265;" horiz-adv-x="792" 
d="M84 644l624 -210v-45l-624 -210v38l580 195l-580 194v38zM708 299v-36l-624 -210v36z" />
    <glyph glyph-name="uni2266" unicode="&#x2266;" horiz-adv-x="792" 
d="M708 698v-37l-578 -167l578 -166v-38l-624 180v49zM84 203h624v-35h-624v35zM84 35h624v-35h-624v35z" />
    <glyph glyph-name="uni2267" unicode="&#x2267;" horiz-adv-x="792" 
d="M84 698l624 -179v-49l-624 -180v38l578 166l-578 167v37zM84 203h624v-35h-624v35zM84 35h624v-35h-624v35z" />
    <glyph glyph-name="uni226E" unicode="&#x226e;" horiz-adv-x="792" 
d="M409 714h35v-179l264 115v-39l-264 -115v-272l264 -115v-39l-264 115v-185h-35v200l-325 142v36l325 142v194zM409 481l-278 -121l278 -121v242z" />
    <glyph glyph-name="uni226F" unicode="&#x226f;" horiz-adv-x="792" 
d="M84 650l264 -115v179h36v-195l324 -141v-36l-324 -141v-201h-36v185l-264 -115v39l264 115v272l-264 115v39zM384 480v-240l278 120z" />
    <glyph glyph-name="circleplus" unicode="&#x2295;" horiz-adv-x="872" 
d="M686 609q102 -102 102 -250q0 -147 -102 -251q-102 -102 -250 -102q-149 0 -251 102q-101 102 -101 251q0 148 102 250t250 102t250 -102zM421 680q-127 -5 -214 -92t-93 -213h307v305zM451 375h306q-6 124 -94 212t-212 93v-305zM114 345q5 -127 93 -215q87 -87 214 -93
v308h-307zM451 345v-308q126 6 213 95q88 91 94 213h-307z" />
    <glyph glyph-name="uni2299" unicode="&#x2299;" horiz-adv-x="872" 
d="M686 609q102 -102 102 -250q0 -147 -102 -251q-102 -102 -250 -102q-149 0 -251 102q-101 102 -101 251q0 148 102 250t250 102t250 -102zM207 587q-93 -93 -93 -228q0 -134 93 -229q96 -94 229 -94q134 0 227 96q95 95 95 227q0 134 -95 227q-94 95 -227 95
q-136 0 -229 -94zM483 406q19 -21 19 -47q0 -25 -19 -47q-22 -19 -47 -19q-27 0 -46 19q-20 20 -20 47q0 28 20 47q18 19 46 19q27 0 47 -19z" />
    <glyph glyph-name="perpendicular" unicode="&#x22a5;" horiz-adv-x="792" 
d="M379 680h35v-609h294v-35h-624v35h295v609z" />
    <glyph glyph-name="uni22BF" unicode="&#x22bf;" horiz-adv-x="775" 
d="M691 674v-638h-627zM656 589l-509 -518h509v518z" />
    <glyph glyph-name="dotmath" unicode="&#x22c5;" horiz-adv-x="335" 
d="M215 409q20 -20 20 -48q0 -26 -20 -48q-22 -19 -48 -19t-47 19q-20 20 -20 48q0 29 20 48q19 19 47 19t48 -19z" />
    <glyph glyph-name="uni2312" unicode="&#x2312;" 
d="M936 24l-22 -24q-195 170 -414 170q-220 0 -414 -170l-22 24q205 178 436 178q230 0 436 -178z" />
    <glyph glyph-name="uni2460" unicode="&#x2460;" 
d="M845 705q143 -143 143 -345q0 -200 -143 -345q-145 -143 -345 -143q-202 0 -345 143t-143 345q0 203 143 345q142 143 345 143q202 0 345 -143zM173 687q-136 -135 -136 -327q0 -191 136 -327t327 -136q189 0 327 136q136 136 136 326q0 192 -136 328t-327 136
q-192 0 -327 -136zM536 693v-671h-38v621q-68 -75 -161 -104v40q95 29 164 114h35z" />
    <glyph glyph-name="uni2461" unicode="&#x2461;" 
d="M845 705q143 -143 143 -345q0 -200 -143 -345q-145 -143 -345 -143q-202 0 -345 143t-143 345q0 203 143 345q142 143 345 143q202 0 345 -143zM173 687q-136 -135 -136 -327q0 -191 136 -327t327 -136q189 0 327 136q136 136 136 326q0 192 -136 328t-327 136
q-192 0 -327 -136zM653 655q57 -51 57 -136q0 -84 -59 -151q-36 -37 -129 -101q-174 -117 -189 -209h378v-36h-422q0 83 71 158q47 52 139 115q91 65 116 91q57 60 57 133q0 71 -45 111q-45 41 -119 41q-75 0 -122 -51q-48 -51 -51 -144h-38q1 105 62 169q57 61 149 61
q87 0 145 -51z" />
    <glyph glyph-name="uni2462" unicode="&#x2462;" 
d="M845 705q143 -143 143 -345q0 -200 -143 -345q-145 -143 -345 -143q-202 0 -345 143t-143 345q0 203 143 345q142 143 345 143q202 0 345 -143zM173 687q-136 -135 -136 -327q0 -191 136 -327t327 -136q189 0 327 136q136 136 136 326q0 192 -136 328t-327 136
q-192 0 -327 -136zM652 656q56 -48 56 -129q0 -56 -26 -96t-80 -58q53 -18 87 -62q32 -44 32 -101q0 -90 -61 -146q-62 -56 -159 -56q-83 0 -141 43q-75 57 -81 170h36q6 -97 68 -142q48 -36 118 -36q80 0 132 47q51 47 51 119q0 64 -46 104q-44 41 -120 41h-58v34h51
q75 0 117 36q41 36 41 102q0 63 -44 104q-43 40 -118 40q-77 0 -121 -43q-46 -46 -55 -121h-37q10 92 66 145q55 55 147 55q91 0 145 -50z" />
    <glyph glyph-name="uni2463" unicode="&#x2463;" 
d="M845 705q143 -143 143 -345q0 -200 -143 -345q-145 -143 -345 -143q-202 0 -345 143t-143 345q0 203 143 345q142 143 345 143q202 0 345 -143zM173 687q-136 -135 -136 -327q0 -191 136 -327t327 -136q189 0 327 136q136 136 136 326q0 192 -136 328t-327 136
q-192 0 -327 -136zM606 693v-475h119v-35h-119v-161h-38v161h-355v37l355 473h38zM566 635l-313 -417h315v417h-2z" />
    <glyph glyph-name="uni2464" unicode="&#x2464;" 
d="M845 705q143 -143 143 -345q0 -200 -143 -345q-145 -143 -345 -143q-202 0 -345 143t-143 345q0 203 143 345q142 143 345 143q202 0 345 -143zM173 687q-136 -135 -136 -327q0 -191 136 -327t327 -136q189 0 327 136q136 136 136 326q0 192 -136 328t-327 136
q-192 0 -327 -136zM333 693h354v-36h-321l-25 -269h2q59 74 159 74q97 0 153 -59q60 -60 60 -169q0 -96 -62 -160q-63 -65 -159 -65q-84 0 -143 47q-65 51 -71 142h39q6 -73 58 -116q47 -38 117 -38q80 0 132 55q51 54 51 135q0 92 -50 144q-47 50 -130 50q-111 0 -159 -97
h-38z" />
    <glyph glyph-name="uni2465" unicode="&#x2465;" 
d="M845 705q143 -143 143 -345q0 -200 -143 -345q-145 -143 -345 -143q-202 0 -345 143t-143 345q0 203 143 345q142 143 345 143q202 0 345 -143zM173 687q-136 -135 -136 -327q0 -191 136 -327t327 -136q189 0 327 136q136 136 136 326q0 192 -136 328t-327 136
q-192 0 -327 -136zM709 534h-39q-12 63 -44 95q-41 41 -117 41q-92 0 -143 -93q-49 -86 -49 -226v-38h2q24 64 76 101q51 39 118 39q95 0 152 -61q57 -60 57 -156q0 -97 -59 -162q-60 -65 -154 -65q-121 0 -180 94q-51 84 -51 238q0 156 57 255q62 110 175 110
q171 0 199 -172zM383 365q-53 -53 -53 -129t45 -132q50 -60 133 -60q79 0 127 54t48 138q0 82 -47 132t-127 50q-73 0 -126 -53z" />
    <glyph glyph-name="uni2466" unicode="&#x2466;" 
d="M845 705q143 -143 143 -345q0 -200 -143 -345q-145 -143 -345 -143q-202 0 -345 143t-143 345q0 203 143 345q142 143 345 143q202 0 345 -143zM173 687q-136 -135 -136 -327q0 -191 136 -327t327 -136q189 0 327 136q136 136 136 326q0 192 -136 328t-327 136
q-192 0 -327 -136zM291 693h418v-34l-253 -637h-43l254 634h-376v37z" />
    <glyph glyph-name="uni2467" unicode="&#x2467;" 
d="M845 705q143 -143 143 -345q0 -200 -143 -345q-145 -143 -345 -143q-202 0 -345 143t-143 345q0 203 143 345q142 143 345 143q202 0 345 -143zM173 687q-136 -135 -136 -327q0 -191 136 -327t327 -136q189 0 327 136q136 136 136 326q0 192 -136 328t-327 136
q-192 0 -327 -136zM656 654q50 -45 50 -119q0 -115 -115 -153v-1q65 -18 103 -66q37 -49 37 -112q0 -86 -57 -139q-64 -55 -174 -55q-111 0 -174 55q-57 53 -57 139q0 65 37 112q36 48 103 66v1q-115 37 -115 153q0 75 50 119q55 52 156 52q100 0 156 -52zM369 628
q-38 -35 -38 -94t38 -94q45 -43 131 -43q85 0 131 43q38 36 38 94t-38 94q-44 43 -131 43t-131 -43zM355 315q-48 -43 -48 -112q0 -71 46 -113q52 -47 147 -47t147 47q46 43 46 113q0 69 -48 112q-51 47 -145 47q-95 0 -145 -47z" />
    <glyph glyph-name="uni2468" unicode="&#x2468;" 
d="M845 705q143 -143 143 -345q0 -200 -143 -345q-145 -143 -345 -143q-202 0 -345 143t-143 345q0 203 143 345q142 143 345 143q202 0 345 -143zM173 687q-136 -135 -136 -327q0 -191 136 -327t327 -136q189 0 327 136q136 136 136 326q0 192 -136 328t-327 136
q-192 0 -327 -136zM671 612q51 -82 51 -238t-57 -255q-63 -110 -175 -110q-172 0 -199 172h39q11 -61 44 -95q41 -41 117 -41q92 0 144 93q48 87 48 226v38h-2q-23 -61 -76 -101q-52 -39 -118 -39q-95 0 -152 60q-57 62 -57 157q0 100 59 163q58 64 154 64q120 0 180 -94z
M365 617q-48 -54 -48 -138q0 -82 47 -132q48 -50 127 -50q71 0 126 53q53 55 53 129q0 78 -45 132q-51 60 -133 60q-79 0 -127 -54z" />
    <glyph glyph-name="uni2469" unicode="&#x2469;" 
d="M845 705q143 -143 143 -345q0 -200 -143 -345q-145 -143 -345 -143q-202 0 -345 143t-143 345q0 203 143 345q142 143 345 143q202 0 345 -143zM173 687q-136 -135 -136 -327q0 -191 136 -327t327 -136q189 0 327 136q136 136 136 326q0 192 -136 328t-327 136
q-192 0 -327 -136zM810 358q0 -349 -180 -349q-179 0 -179 348q0 349 179 349q180 0 180 -348zM533 611q-45 -76 -45 -254q0 -177 44 -253q35 -59 98 -59q61 0 98 58q44 79 44 255q0 180 -45 255q-36 57 -97 57q-63 0 -97 -59zM327 693v-671h-37v617q-49 -66 -125 -101v39
q79 40 132 116h30z" />
    <glyph glyph-name="uni246A" unicode="&#x246a;" 
d="M845 705q143 -143 143 -345q0 -200 -143 -345q-145 -143 -345 -143q-202 0 -345 143t-143 345q0 203 143 345q142 143 345 143q202 0 345 -143zM173 687q-136 -135 -136 -327q0 -191 136 -327t327 -136q189 0 327 136q136 138 136 327q0 191 -136 327t-327 136
q-192 0 -327 -136zM726 693v-671h-36v617q-49 -65 -126 -101v39q80 40 132 116h30zM363 693v-671h-37v617q-49 -66 -125 -101v39q80 40 132 116h30z" />
    <glyph glyph-name="uni246B" unicode="&#x246b;" 
d="M845 705q143 -143 143 -345q0 -200 -143 -345q-145 -143 -345 -143q-202 0 -345 143t-143 345q0 203 143 345q142 143 345 143q202 0 345 -143zM173 687q-136 -135 -136 -327q0 -191 136 -327t327 -136q189 0 327 136q136 138 136 327q0 191 -136 327t-327 136
q-192 0 -327 -136zM758 655q50 -52 50 -136q0 -81 -49 -147q-32 -40 -110 -102q-152 -119 -164 -212h320v-36h-361q0 79 60 157q38 51 118 114q77 63 102 93q46 61 46 134q0 68 -38 109q-39 42 -101 42q-66 0 -105 -52q-41 -50 -43 -143h-36q2 107 52 168q50 62 132 62
q76 0 127 -51zM327 693v-671h-37v617q-49 -66 -125 -101v39q79 40 132 116h30z" />
    <glyph glyph-name="uni246C" unicode="&#x246c;" 
d="M845 705q143 -143 143 -345q0 -200 -143 -345q-145 -143 -345 -143q-202 0 -345 143t-143 345q0 203 143 345q142 143 345 143q202 0 345 -143zM173 687q-136 -135 -136 -327q0 -191 136 -327t327 -136q189 0 327 136q136 138 136 327q0 191 -136 327t-327 136
q-192 0 -327 -136zM760 656q48 -48 48 -129q0 -116 -93 -155q48 -18 77 -61q28 -44 28 -101q0 -89 -53 -145q-54 -56 -138 -56q-72 0 -122 42q-66 54 -72 170h37q5 -96 57 -141q41 -36 100 -36q69 0 112 46q42 47 42 119q0 64 -38 104q-38 41 -102 41h-50v34h44q63 0 98 32
q36 36 36 106q0 64 -36 103q-35 41 -101 41t-103 -44q-37 -43 -46 -120h-37q9 91 58 145q49 55 128 55t126 -50zM327 693v-671h-37v617q-49 -66 -125 -101v39q79 40 132 116h30z" />
    <glyph glyph-name="uni246D" unicode="&#x246d;" 
d="M845 705q143 -143 143 -345q0 -200 -143 -345q-145 -143 -345 -143q-202 0 -345 143t-143 345q0 203 143 345q142 143 345 143q202 0 345 -143zM173 687q-136 -135 -136 -327q0 -191 136 -327t327 -136q189 0 327 136q136 138 136 327q0 191 -136 327t-327 136
q-192 0 -327 -136zM719 693h39v-475h103v-35h-103v-161h-37v161h-297v36zM327 693v-671h-37v617q-49 -66 -125 -101v39q79 40 132 116h30zM718 628l-256 -410h259v410h-3z" />
    <glyph glyph-name="uni246E" unicode="&#x246e;" 
d="M845 705q143 -143 143 -345q0 -200 -143 -345q-145 -143 -345 -143q-202 0 -345 143t-143 345q0 203 143 345q142 143 345 143q202 0 345 -143zM173 687q-136 -135 -136 -327q0 -191 136 -327t327 -136q189 0 327 136q136 138 136 327q0 191 -136 327t-327 136
q-192 0 -327 -136zM480 693h314v-36h-281l-23 -269h3q52 74 139 74q84 0 135 -58q54 -61 54 -170q0 -97 -54 -160q-56 -65 -142 -65q-79 0 -128 46q-54 50 -62 143h37q6 -76 51 -116q40 -38 102 -38q73 0 118 56q41 53 41 134q0 92 -43 144q-41 50 -114 50q-50 0 -83 -23
q-37 -25 -59 -74h-33zM327 693v-671h-37v617q-49 -66 -125 -101v39q79 40 132 116h30z" />
    <glyph glyph-name="uni246F" unicode="&#x246f;" 
d="M845 705q143 -143 143 -345q0 -200 -143 -345q-145 -143 -345 -143q-202 0 -345 143t-143 345q0 203 143 345q142 143 345 143q202 0 345 -143zM173 687q-136 -135 -136 -327q0 -191 136 -327t327 -136q189 0 327 136q136 138 136 327q0 191 -136 327t-327 136
q-192 0 -327 -136zM811 534h-38q-22 137 -136 137q-78 0 -123 -92q-42 -87 -42 -227q0 -17 1 -37h3q17 60 64 100q44 38 101 38q80 0 131 -61q49 -61 49 -156q0 -97 -51 -163q-52 -64 -133 -64q-95 0 -147 79q-55 85 -55 253q0 157 49 255q54 110 153 110q149 0 174 -172z
M327 693v-671h-37v617q-49 -66 -125 -101v39q79 40 132 116h30zM530 363q-45 -54 -45 -127q0 -79 37 -132q42 -60 115 -60q69 0 108 54t39 138q0 83 -39 131q-39 52 -108 52q-63 0 -107 -56z" />
    <glyph glyph-name="uni2470" unicode="&#x2470;" 
d="M845 705q143 -143 143 -345q0 -200 -143 -345q-145 -143 -345 -143q-202 0 -345 143t-143 345q0 203 143 345q142 143 345 143q202 0 345 -143zM173 687q-136 -135 -136 -327q0 -191 136 -327t327 -136q189 0 327 136q136 138 136 327q0 191 -136 327t-327 136
q-192 0 -327 -136zM433 693h359v-34l-209 -637h-42l210 634h-318v37zM327 693v-671h-37v617q-49 -66 -125 -101v39q79 40 132 116h30z" />
    <glyph glyph-name="uni2471" unicode="&#x2471;" 
d="M845 705q143 -143 143 -345q0 -200 -143 -345q-145 -143 -345 -143q-202 0 -345 143t-143 345q0 203 143 345q142 143 345 143q202 0 345 -143zM173 687q-136 -135 -136 -327q0 -191 136 -327t327 -136q189 0 327 136q136 138 136 327q0 191 -136 327t-327 136
q-192 0 -327 -136zM767 654q44 -46 44 -118q0 -114 -101 -153v-2q57 -19 91 -68q31 -48 31 -111q0 -86 -50 -138q-55 -55 -151 -55q-98 0 -151 55q-50 50 -50 138q0 65 31 111q32 49 91 68v2q-101 39 -101 153q0 74 44 118q48 52 136 52q87 0 136 -52zM327 693v-671h-37v617
q-49 -66 -125 -101v39q79 40 132 116h30zM520 629q-32 -35 -32 -95q0 -58 31 -93q37 -43 112 -43q73 0 111 41q32 38 32 95q0 58 -32 95q-37 42 -111 42q-75 0 -111 -42zM508 315q-41 -41 -41 -113q0 -71 38 -112q42 -47 126 -47q82 0 126 47q38 43 38 112q0 70 -39 112
q-45 48 -125 48q-82 0 -123 -47z" />
    <glyph glyph-name="uni2472" unicode="&#x2472;" 
d="M845 705q143 -143 143 -345q0 -200 -143 -345q-145 -143 -345 -143q-202 0 -345 143t-143 345q0 203 143 345q142 143 345 143q202 0 345 -143zM173 687q-136 -135 -136 -327q0 -191 136 -327t327 -136q189 0 327 136q136 138 136 327q0 191 -136 327t-327 136
q-192 0 -327 -136zM766 627q55 -86 55 -253q0 -155 -50 -255q-56 -110 -152 -110q-150 0 -174 172h38q21 -137 136 -137q78 0 123 92q40 87 42 227l-1 37h-3q-20 -61 -64 -99q-45 -39 -101 -39q-82 0 -130 60q-50 60 -50 157q0 99 52 163q49 64 132 64q95 0 147 -79z
M327 693v-671h-37v617q-49 -66 -125 -101v39q79 40 132 116h30zM511 617q-39 -52 -39 -138q0 -81 39 -132t108 -51q61 0 108 55q44 58 44 128q0 78 -37 132q-42 60 -115 60q-69 0 -108 -54z" />
    <glyph glyph-name="uni2473" unicode="&#x2473;" 
d="M845 705q143 -143 143 -345q0 -200 -143 -345q-145 -143 -345 -143q-202 0 -345 143t-143 345q0 203 143 345q142 143 345 143q202 0 345 -143zM173 687q-136 -135 -136 -327q0 -191 136 -327l3 -3q5 85 49 153q22 38 92 111q61 62 81 94q38 62 38 131q0 70 -29 110
q-30 42 -80 42q-55 0 -84 -50q-33 -51 -33 -145h-37q2 109 43 168q41 62 111 62q66 0 107 -50q39 -49 39 -137q0 -76 -41 -143q-25 -39 -89 -105q-52 -51 -81 -96q-41 -61 -47 -117h259v-36h-290q133 -125 316 -125q189 0 327 136q136 138 136 327q0 191 -136 327t-327 136
q-192 0 -327 -136zM797 622q41 -87 41 -264q0 -173 -40 -262q-39 -87 -120 -87q-82 0 -121 85q-41 85 -41 264q0 178 42 265q39 83 120 83q80 0 119 -84zM594 612q-40 -74 -40 -254q0 -181 40 -255q31 -58 84 -58t84 58q40 77 40 255q0 176 -40 253q-29 59 -84 59
q-54 0 -84 -58z" />
    <glyph glyph-name="uni2474" unicode="&#x2474;" 
d="M155 827q-115 -221 -115 -467q0 -244 115 -467h-32q-111 222 -111 467t111 467h32zM877 827q111 -222 111 -467t-111 -467h-32q115 225 115 467q0 243 -115 467h32zM539 714v-714h-39v664q-72 -83 -175 -112v41q49 14 98 46q45 30 81 75h35z" />
    <glyph glyph-name="uni2475" unicode="&#x2475;" 
d="M155 827q-115 -221 -115 -467q0 -244 115 -467h-32q-111 222 -111 467t111 467h32zM877 827q111 -222 111 -467t-111 -467h-32q115 225 115 467q0 243 -115 467h32zM663 674q61 -55 61 -145q0 -94 -71 -168q-32 -34 -148 -114q-169 -115 -184 -210h404v-37h-450
q0 85 71 162q45 51 144 120q104 75 130 101q65 68 65 146q0 75 -50 119q-47 44 -127 44q-84 0 -132 -54q-54 -57 -54 -163h-38q0 121 64 188q59 65 160 65q94 0 155 -54z" />
    <glyph glyph-name="uni2476" unicode="&#x2476;" 
d="M155 827q-115 -221 -115 -467q0 -244 115 -467h-32q-111 222 -111 467t111 467h32zM877 827q111 -222 111 -467t-111 -467h-32q115 225 115 467q0 243 -115 467h32zM662 676q59 -53 59 -137q0 -127 -115 -166q61 -20 95 -64q35 -46 35 -108q0 -95 -66 -155t-169 -60
q-88 0 -150 47q-78 60 -87 180h39q6 -101 72 -152q54 -40 126 -40q88 0 142 51t54 128q0 70 -49 113q-47 43 -128 43h-68v34h60q83 0 126 39q44 38 44 108q0 68 -46 111q-47 44 -129 44t-129 -47q-48 -45 -59 -128h-38q11 98 71 155q57 56 155 56q96 0 155 -52z" />
    <glyph glyph-name="uni2477" unicode="&#x2477;" 
d="M155 827q-115 -221 -115 -467q0 -244 115 -467h-32q-111 222 -111 467t111 467h32zM877 827q111 -222 111 -467t-111 -467h-32q115 225 115 467q0 243 -115 467h32zM604 714h40v-507h128v-35h-128v-172h-38v172h-377v39zM603 658l-335 -451h338v451h-3z" />
    <glyph glyph-name="uni2478" unicode="&#x2478;" 
d="M155 827q-115 -221 -115 -467q0 -244 115 -467h-32q-111 222 -111 467t111 467h32zM877 827q111 -222 111 -467t-111 -467h-32q115 225 115 467q0 243 -115 467h32zM320 714h392v-37h-358l-27 -290h3q31 40 80 61q43 20 96 20q103 0 165 -62q65 -65 65 -180
q0 -103 -68 -173q-69 -67 -172 -67q-89 0 -153 50q-71 54 -79 150h40q6 -78 64 -124q53 -41 128 -41q87 0 145 58q57 60 57 147q0 99 -56 155q-53 52 -141 52q-57 0 -105 -27q-49 -28 -73 -77h-38z" />
    <glyph glyph-name="uni2479" unicode="&#x2479;" 
d="M155 827q-115 -221 -115 -467q0 -244 115 -467h-32q-111 222 -111 467t111 467h32zM877 827q111 -222 111 -467t-111 -467h-32q115 225 115 467q0 243 -115 467h32zM726 542h-39q-27 150 -177 150q-98 0 -154 -99q-53 -91 -53 -241q0 -22 1 -48h3q21 69 79 112
q55 43 128 43q101 0 162 -65q61 -64 61 -166q0 -103 -62 -173q-64 -69 -165 -69q-128 0 -192 100q-54 90 -54 254q0 165 61 272q65 116 186 116q184 0 215 -186zM376 367q-58 -57 -58 -139q0 -83 49 -142q54 -65 143 -65q83 0 136 59t53 148q0 87 -52 142q-52 54 -137 54
q-77 0 -134 -57z" />
    <glyph glyph-name="uni247A" unicode="&#x247a;" 
d="M155 827q-115 -221 -115 -467q0 -244 115 -467h-32q-111 222 -111 467t111 467h32zM877 827q111 -222 111 -467t-111 -467h-32q115 225 115 467q0 243 -115 467h32zM274 714h452v-34l-278 -680h-43l279 677h-410v37z" />
    <glyph glyph-name="uni247B" unicode="&#x247b;" 
d="M155 827q-115 -221 -115 -467q0 -244 115 -467h-32q-111 222 -111 467t111 467h32zM877 827q111 -222 111 -467t-111 -467h-32q115 225 115 467q0 243 -115 467h32zM666 673q54 -48 54 -126q0 -58 -31 -101q-32 -44 -92 -62v-4q65 -12 106 -64q43 -54 43 -124
q0 -89 -61 -147q-67 -59 -185 -59q-120 0 -185 59q-61 57 -61 147q0 72 43 124q41 52 107 64v4q-61 18 -93 62q-31 41 -31 101q0 78 54 126q58 55 166 55q107 0 166 -55zM360 647q-42 -39 -42 -101q0 -63 41 -101q48 -46 141 -46q92 0 141 46q41 39 41 101t-42 101
q-47 46 -140 46t-140 -46zM344 313q-51 -46 -51 -121t49 -121q54 -51 158 -51t159 51q48 47 48 121q0 75 -51 121q-57 51 -156 51q-100 0 -156 -51z" />
    <glyph glyph-name="uni247C" unicode="&#x247c;" 
d="M155 827q-115 -221 -115 -467q0 -244 115 -467h-32q-111 222 -111 467t111 467h32zM877 827q111 -222 111 -467t-111 -467h-32q115 225 115 467q0 243 -115 467h32zM682 629q55 -90 55 -255q0 -162 -61 -272q-68 -116 -186 -116q-185 0 -215 186h39q27 -150 177 -150
q97 0 154 99q53 95 53 241l-1 48h-2q-22 -69 -79 -112q-58 -43 -129 -43q-102 0 -162 65q-61 64 -61 166q0 104 63 173t164 69q128 0 191 -99zM355 634q-53 -56 -53 -148q0 -89 52 -142q51 -54 137 -54q77 0 135 57q57 59 57 139q0 82 -49 142q-53 65 -143 65
q-86 0 -136 -59z" />
    <glyph glyph-name="uni247D" unicode="&#x247d;" 
d="M155 827q-115 -221 -115 -467q0 -244 115 -467h-32q-111 222 -111 467t111 467h32zM877 827q111 -222 111 -467t-111 -467h-32q115 225 115 467q0 243 -115 467h32zM809 605q39 -94 39 -247t-39 -248q-53 -124 -167 -124q-116 0 -167 124q-40 95 -40 248q0 155 40 247
q51 123 167 123q115 0 167 -123zM312 714v-714h-38v664q-58 -67 -139 -101v41q86 37 144 110h33zM509 590q-36 -84 -36 -232q0 -147 36 -234q44 -102 133 -102t132 102q37 88 37 234q0 145 -37 233q-43 101 -132 101t-133 -102z" />
    <glyph glyph-name="uni247E" unicode="&#x247e;" 
d="M155 827q-115 -221 -115 -467q0 -244 115 -467h-32q-111 222 -111 467t111 467h32zM877 827q111 -222 111 -467t-111 -467h-32q115 225 115 467q0 243 -115 467h32zM352 714v-714h-38v664q-58 -67 -139 -101v41q86 37 144 110h33zM724 714v-714h-38v664
q-58 -67 -139 -101v41q86 37 144 110h33z" />
    <glyph glyph-name="uni247F" unicode="&#x247f;" 
d="M155 827q-115 -221 -115 -467q0 -244 115 -467h-32q-111 222 -111 467t111 467h32zM877 827q111 -222 111 -467t-111 -467h-32q115 225 115 467q0 243 -115 467h32zM783 674q53 -55 53 -145q0 -89 -53 -159q-34 -41 -119 -109q-161 -125 -173 -224h346v-37h-389
q0 87 66 168q40 52 133 124q73 58 103 97q48 63 48 140q0 74 -41 118q-40 45 -108 45q-69 0 -111 -55q-46 -58 -46 -162h-38q0 118 55 187q51 66 140 66q80 0 134 -54zM312 714v-714h-38v664q-58 -67 -139 -101v41q86 37 144 110h33z" />
    <glyph glyph-name="uni2480" unicode="&#x2480;" 
d="M155 827q-115 -221 -115 -467q0 -244 115 -467h-32q-111 222 -111 467t111 467h32zM877 827q111 -222 111 -467t-111 -467h-32q115 225 115 467q0 243 -115 467h32zM780 676q52 -54 52 -138q0 -126 -103 -165q52 -19 85 -64q31 -46 31 -108q0 -95 -57 -155t-148 -60
q-80 0 -133 47q-68 60 -74 180h37q5 -102 61 -153q44 -39 109 -39q76 0 122 51q46 52 46 128q0 70 -41 113q-42 43 -112 43h-54v34h48q146 0 146 147q0 69 -40 112t-110 43q-71 0 -111 -47q-40 -44 -49 -128h-38q9 97 62 155q50 56 135 56q84 0 136 -52zM312 714v-714h-38
v664q-58 -67 -139 -101v41q86 37 144 110h33z" />
    <glyph glyph-name="uni2481" unicode="&#x2481;" 
d="M155 827q-115 -221 -115 -467q0 -244 115 -467h-32q-111 222 -111 467t111 467h32zM877 827q111 -222 111 -467t-111 -467h-32q115 225 115 467q0 243 -115 467h32zM312 714v-714h-38v664q-58 -67 -139 -101v41q86 37 144 110h33zM728 714h37v-507h105v-35h-105v-172h-36
v172h-313v37zM727 651l-274 -444h276v444h-2z" />
    <glyph glyph-name="uni2482" unicode="&#x2482;" 
d="M155 827q-115 -221 -115 -467q0 -244 115 -467h-32q-111 222 -111 467t111 467h32zM877 827q111 -222 111 -467t-111 -467h-32q115 225 115 467q0 243 -115 467h32zM312 714v-714h-38v664q-58 -67 -139 -101v41q86 37 144 110h33zM483 714h333v-37h-302l-23 -290h2
q28 38 69 59q40 22 84 22q90 0 143 -62q57 -64 57 -180q0 -102 -59 -172q-59 -68 -150 -68q-80 0 -135 50q-61 54 -69 150h38q6 -78 55 -124q46 -41 111 -41q76 0 126 59q46 61 46 146q0 100 -46 155q-45 52 -122 52q-48 0 -89 -28q-44 -28 -64 -76h-36z" />
    <glyph glyph-name="uni2483" unicode="&#x2483;" 
d="M155 827q-115 -221 -115 -467q0 -244 115 -467h-32q-111 222 -111 467t111 467h32zM877 827q111 -222 111 -467t-111 -467h-32q115 225 115 467q0 243 -115 467h32zM312 714v-714h-38v664q-58 -67 -139 -101v41q86 37 144 110h33zM780 679q47 -48 60 -137h-38
q-24 150 -155 150q-82 0 -130 -98q-44 -91 -44 -243v-45h2q19 68 69 110q47 43 112 43q88 0 141 -65q53 -64 53 -166q0 -103 -55 -173q-57 -69 -144 -69q-110 0 -165 94q-51 90 -51 260q0 174 52 275q55 113 161 113q83 0 132 -49zM535 366q-50 -56 -50 -138t42 -142
q45 -65 124 -65q74 0 119 59q43 58 43 147q0 90 -42 142q-45 55 -119 55q-69 0 -117 -58z" />
    <glyph glyph-name="uni2484" unicode="&#x2484;" 
d="M155 827q-115 -221 -115 -467q0 -244 115 -467h-32q-111 222 -111 467t111 467h32zM877 827q111 -222 111 -467t-111 -467h-32q115 225 115 467q0 243 -115 467h32zM312 714v-714h-38v664q-58 -67 -139 -101v41q86 37 144 110h33zM448 714h387v-35l-234 -679h-43l238 677
h-348v37z" />
    <glyph glyph-name="uni2485" unicode="&#x2485;" 
d="M155 827q-115 -221 -115 -467q0 -244 115 -467h-32q-111 222 -111 467t111 467h32zM877 827q111 -222 111 -467t-111 -467h-32q115 225 115 467q0 243 -115 467h32zM312 714v-714h-38v664q-58 -67 -139 -101v41q86 37 144 110h33zM787 673q49 -52 49 -126
q0 -124 -111 -163v-2q63 -18 99 -69q35 -52 35 -121q0 -90 -55 -147q-59 -59 -162 -59t-162 59q-55 55 -55 147q0 70 36 121q34 51 98 69v2q-110 39 -110 163q0 75 48 126q52 55 145 55q91 0 145 -55zM521 646q-36 -39 -36 -100q0 -62 36 -101q40 -46 121 -46q79 0 122 46
q35 40 35 101t-36 100q-41 47 -121 47t-121 -47zM506 312q-43 -44 -43 -120q0 -77 43 -121q45 -51 136 -51q89 0 137 51q43 46 43 121q0 74 -44 120q-48 52 -136 52t-136 -52z" />
    <glyph glyph-name="uni2486" unicode="&#x2486;" 
d="M155 827q-115 -221 -115 -467q0 -244 115 -467h-32q-111 222 -111 467t111 467h32zM877 827q111 -222 111 -467t-111 -467h-32q115 225 115 467q0 243 -115 467h32zM312 714v-714h-38v664q-58 -67 -139 -101v41q86 37 144 110h33zM799 634q51 -88 51 -260
q0 -171 -51 -275q-57 -113 -162 -113q-83 0 -132 49q-47 49 -59 137h38q24 -150 155 -150q81 0 129 98q45 95 45 243l-1 45h-1q-21 -67 -70 -110t-111 -43q-88 0 -142 65q-53 62 -53 166q0 105 56 173q54 69 143 69q111 0 165 -94zM515 635q-43 -56 -43 -148q0 -90 43 -143
q42 -54 118 -54q66 0 118 58q49 60 49 138q0 84 -42 142q-44 65 -124 65q-76 0 -119 -58z" />
    <glyph glyph-name="uni2487" unicode="&#x2487;" 
d="M155 827q-115 -221 -115 -467q0 -244 115 -467h-32q-111 222 -111 467t111 467h32zM877 827q111 -222 111 -467t-111 -467h-32q115 225 115 467q0 243 -115 467h32zM449 675q41 -52 41 -146q0 -76 -41 -146q-31 -48 -93 -110q-79 -74 -100 -106q-49 -64 -52 -130h282v-37
h-323q0 94 49 167q27 42 113 125q65 63 91 104q38 64 38 133q0 74 -32 118q-33 45 -92 45t-94 -54q-37 -56 -37 -163h-36q0 120 47 188q44 65 120 65q78 0 119 -53zM830 631q41 -94 41 -273q0 -180 -41 -274q-44 -98 -130 -98q-87 0 -129 97q-41 91 -41 275q0 183 41 274
q42 96 129 96t130 -97zM609 630q-43 -80 -43 -272t43 -274q33 -62 91 -62q135 0 135 336q0 334 -135 334q-59 0 -91 -62z" />
    <glyph glyph-name="uni2488" unicode="&#x2488;" 
d="M480 714v-714h-39v664q-70 -82 -174 -112v41q49 14 98 46q45 30 81 75h34zM924 64q10 -10 10 -28q0 -16 -10 -26t-27 -10q-18 0 -27 9q-10 10 -10 27q0 18 10 27q9 10 27 10t27 -9z" />
    <glyph glyph-name="uni2489" unicode="&#x2489;" 
d="M614 674q60 -54 60 -145q0 -93 -70 -168q-32 -34 -148 -114q-169 -115 -184 -210h403v-37h-449q0 85 71 162q45 51 144 120q104 75 130 101q65 68 65 146q0 75 -49 119q-50 44 -128 44q-84 0 -132 -54q-54 -57 -54 -163h-39q0 120 65 188q59 65 160 65q92 0 155 -54z
M924 64q10 -10 10 -28q0 -16 -10 -26t-27 -10q-18 0 -27 9q-10 10 -10 27q0 18 10 27q9 10 27 10t27 -9z" />
    <glyph glyph-name="uni248A" unicode="&#x248a;" 
d="M612 676q58 -53 58 -137q0 -127 -115 -166q61 -20 95 -64q35 -46 35 -108q0 -95 -65 -155q-66 -60 -170 -60q-88 0 -150 47q-78 60 -87 180h39q6 -101 72 -152q54 -40 126 -40q88 0 142 51t54 128q0 70 -49 113q-47 43 -128 43h-68v34h60q83 0 126 39q44 38 44 108
q0 68 -46 111q-47 44 -129 44t-129 -47q-48 -45 -59 -128h-38q11 98 71 155q57 56 155 56q97 0 156 -52zM924 64q10 -10 10 -28q0 -16 -10 -26t-27 -10q-18 0 -27 9q-10 10 -10 27q0 18 10 27q9 10 27 10t27 -9z" />
    <glyph glyph-name="uni248B" unicode="&#x248b;" 
d="M552 714h40v-507h128v-35h-128v-172h-38v172h-377v39zM551 658l-335 -451h338v451h-3zM924 64q10 -10 10 -28q0 -16 -10 -26t-27 -10q-18 0 -27 9q-10 10 -10 27q0 18 10 27q9 10 27 10t27 -9z" />
    <glyph glyph-name="uni248C" unicode="&#x248c;" 
d="M265 714h392v-37h-358l-28 -290h4q31 40 80 61q43 20 96 20q103 0 165 -62q65 -65 65 -180q0 -104 -69 -173q-69 -67 -171 -67q-90 0 -154 50q-70 54 -78 150h40q6 -78 64 -124q53 -41 128 -41q87 0 145 58q56 61 56 147q0 98 -55 155q-53 52 -141 52q-57 0 -105 -27
q-49 -28 -73 -77h-38zM924 64q10 -10 10 -28q0 -16 -10 -26t-27 -10q-18 0 -27 9q-10 10 -10 27q0 18 10 27q9 10 27 10t27 -9z" />
    <glyph glyph-name="uni248D" unicode="&#x248d;" 
d="M675 542h-39q-27 150 -177 150q-98 0 -154 -99q-53 -91 -53 -241q0 -22 1 -48h3q21 69 79 112q55 43 128 43q101 0 162 -65q61 -64 61 -166q0 -104 -63 -173t-164 -69q-129 0 -191 100q-55 89 -55 254t61 272q65 116 186 116q184 0 215 -186zM324 367q-57 -57 -57 -139
q0 -83 49 -142q54 -65 143 -65q83 0 136 59t53 148q0 87 -52 142q-52 54 -137 54q-78 0 -135 -57zM924 64q10 -10 10 -28q0 -16 -10 -26t-27 -10q-18 0 -27 9q-10 10 -10 27q0 18 10 27q9 10 27 10t27 -9z" />
    <glyph glyph-name="uni248E" unicode="&#x248e;" 
d="M225 714h452v-34l-278 -680h-43l279 677h-410v37zM924 64q10 -10 10 -28q0 -16 -10 -26t-27 -10q-18 0 -27 9q-10 10 -10 27q0 18 10 27q9 10 27 10t27 -9z" />
    <glyph glyph-name="uni248F" unicode="&#x248f;" 
d="M616 673q54 -48 54 -126q0 -58 -31 -101q-32 -44 -92 -62v-4q65 -12 106 -64q43 -54 43 -124q0 -89 -61 -147q-67 -59 -185 -59q-120 0 -185 59q-61 57 -61 147q0 72 43 124q41 52 107 64v4q-61 18 -93 62q-31 41 -31 101q0 78 54 126q58 55 166 55q107 0 166 -55z
M310 647q-42 -39 -42 -101q0 -63 41 -101q48 -46 141 -46q92 0 141 46q41 39 41 101t-42 101q-47 46 -140 46t-140 -46zM294 313q-51 -46 -51 -121t49 -121q54 -51 158 -51t159 51q48 47 48 121q0 75 -51 121q-57 51 -156 51q-100 0 -156 -51zM924 64q10 -10 10 -28
q0 -16 -10 -26t-27 -10q-18 0 -27 9q-10 10 -10 27q0 18 10 27q9 10 27 10t27 -9z" />
    <glyph glyph-name="uni2490" unicode="&#x2490;" 
d="M631 629q55 -90 55 -255q0 -162 -61 -272q-68 -116 -186 -116q-185 0 -215 186h39q27 -150 177 -150q97 0 154 99q53 95 53 241l-1 48h-2q-22 -68 -80 -112q-58 -43 -128 -43q-102 0 -162 65q-61 64 -61 166q0 105 62 173q63 69 165 69q128 0 191 -99zM304 634
q-53 -56 -53 -148q0 -89 52 -142q51 -54 137 -54q77 0 134 57q58 60 58 139q0 82 -49 142q-53 65 -143 65q-86 0 -136 -59zM924 64q10 -10 10 -28q0 -16 -10 -26t-27 -10q-18 0 -27 9q-10 10 -10 27q0 18 10 27q9 10 27 10t27 -9z" />
    <glyph glyph-name="uni2491" unicode="&#x2491;" 
d="M238 714v-714h-37v664q-58 -67 -139 -101v41q86 37 144 110h32zM737 605q40 -97 40 -247t-40 -248q-54 -124 -168 -124q-116 0 -167 124q-39 95 -39 248q0 154 39 247q51 123 167 123q114 0 168 -123zM437 590q-36 -84 -36 -232t36 -234q42 -101 132 -101q88 0 133 101
q36 87 36 234q0 148 -36 232q-45 101 -133 101q-90 0 -132 -101zM924 64q10 -10 10 -28q0 -16 -10 -26t-27 -10q-18 0 -27 9q-10 10 -10 27q0 18 10 27q9 10 27 10t27 -9z" />
    <glyph glyph-name="uni2492" unicode="&#x2492;" 
d="M252 714v-714h-38v664q-58 -67 -139 -101v41q86 37 144 110h33zM656 714v-714h-38v664q-58 -67 -139 -101v41q86 37 144 110h33zM924 64q10 -10 10 -28q0 -16 -10 -26t-27 -10q-18 0 -27 9q-10 10 -10 27q0 18 10 27q9 10 27 10t27 -9z" />
    <glyph glyph-name="uni2493" unicode="&#x2493;" 
d="M238 714v-714h-37v664q-58 -67 -139 -101v41q86 37 144 110h32zM713 674q52 -55 52 -145q0 -89 -53 -159q-34 -41 -119 -109q-161 -125 -173 -224h346v-37h-390q0 89 67 169q38 49 133 123q73 58 103 97q48 63 48 140q0 74 -40 119q-41 44 -110 44q-74 0 -115 -59
q-41 -56 -41 -158h-38q0 118 52 185q52 68 143 68q81 0 135 -54zM924 64q10 -10 10 -28q0 -16 -10 -26t-27 -10q-18 0 -27 9q-10 10 -10 27q0 18 10 27q9 10 27 10t27 -9z" />
    <glyph glyph-name="uni2494" unicode="&#x2494;" 
d="M709 676q52 -54 52 -138q0 -126 -103 -165q54 -19 85 -64q31 -46 31 -108q0 -95 -57 -155q-58 -60 -149 -60q-76 0 -131 47q-68 60 -76 180h37q4 -103 62 -153q44 -39 108 -39q76 0 122 51t46 128q0 70 -42 113q-40 43 -110 43h-55v34h48q146 0 146 147q0 69 -40 112
t-110 43t-110 -46q-41 -45 -50 -129h-37q9 98 61 155q50 56 136 56q84 0 136 -52zM238 714v-714h-37v664q-58 -67 -139 -101v41q86 37 144 110h32zM924 64q10 -10 10 -28q0 -16 -10 -26t-27 -10q-18 0 -27 9q-10 10 -10 27q0 18 10 27q9 10 27 10t27 -9z" />
    <glyph glyph-name="uni2495" unicode="&#x2495;" 
d="M238 714v-714h-37v664q-58 -67 -139 -101v41q86 37 144 110h32zM658 714h37v-507h105v-35h-105v-172h-37v172h-312v37zM656 649l-272 -442h274v442h-2zM924 64q10 -10 10 -28q0 -16 -10 -26t-27 -10q-18 0 -27 9q-10 10 -10 27q0 18 10 27q9 10 27 10t27 -9z" />
    <glyph glyph-name="uni2496" unicode="&#x2496;" 
d="M238 714v-714h-37v664q-58 -67 -139 -101v41q86 37 144 110h32zM414 714h329v-37h-296l-26 -289h3q28 39 67 59q39 21 81 21q88 0 141 -62q56 -65 56 -180q0 -102 -58 -172q-59 -68 -147 -68q-78 0 -133 50q-62 54 -68 150h39q6 -79 54 -124q43 -41 108 -41q74 0 121 58
q46 61 46 147q0 101 -45 155q-43 52 -119 52q-48 0 -88 -28q-40 -26 -62 -76h-36zM924 64q10 -10 10 -28q0 -16 -10 -26t-27 -10q-18 0 -27 9q-10 10 -10 27q0 18 10 27q9 10 27 10t27 -9z" />
    <glyph glyph-name="uni2497" unicode="&#x2497;" 
d="M238 714v-714h-37v664q-58 -67 -139 -101v41q86 37 144 110h32zM707 679q46 -47 59 -137h-38q-12 72 -44 106q-38 44 -111 44q-86 0 -131 -98q-43 -90 -43 -243q0 -24 1 -46h1q21 70 70 111q47 43 112 43q88 0 141 -65q54 -63 54 -166t-56 -173q-57 -69 -144 -69
q-112 0 -166 95q-51 90 -51 259t52 273q57 115 162 115q83 0 132 -49zM461 367q-49 -56 -49 -139t40 -141q45 -66 125 -66q74 0 120 58q43 60 43 149q0 88 -43 142t-119 54q-69 0 -117 -57zM924 64q10 -10 10 -28q0 -16 -10 -26t-27 -10q-18 0 -27 9q-10 10 -10 27
q0 18 10 27q9 10 27 10t27 -9z" />
    <glyph glyph-name="uni2498" unicode="&#x2498;" 
d="M238 714v-714h-37v664q-58 -67 -139 -101v41q86 37 144 110h32zM386 714h387v-35l-235 -679h-41l235 677h-346v37zM924 64q10 -10 10 -28q0 -16 -10 -26t-27 -10q-18 0 -27 9q-10 10 -10 27q0 18 10 27q9 10 27 10t27 -9z" />
    <glyph glyph-name="uni2499" unicode="&#x2499;" 
d="M238 714v-714h-37v664q-58 -67 -139 -101v41q86 37 144 110h32zM713 673q49 -52 49 -126q0 -123 -111 -164v-1q62 -18 99 -69q35 -52 35 -121q0 -90 -55 -147q-59 -59 -162 -59q-105 0 -162 59q-55 55 -55 147q0 71 35 121q36 51 100 69v1q-112 40 -112 164q0 76 49 126
q52 55 145 55q91 0 145 -55zM446 646q-36 -39 -36 -100q0 -62 36 -101q41 -46 122 -46q80 0 123 46q35 40 35 101t-36 100q-43 47 -122 47q-81 0 -122 -47zM433 312q-44 -44 -44 -120q0 -77 43 -121q45 -51 136 -51q90 0 136 51q43 46 43 121q0 74 -44 120q-48 52 -135 52
t-135 -52zM924 64q10 -10 10 -28q0 -16 -10 -26t-27 -10q-18 0 -27 9q-10 10 -10 27q0 18 10 27q9 10 27 10t27 -9z" />
    <glyph glyph-name="uni249A" unicode="&#x249a;" 
d="M238 714v-714h-37v664q-58 -67 -139 -101v41q86 37 144 110h32zM726 634q52 -90 52 -260q0 -166 -52 -273q-57 -115 -162 -115q-82 0 -131 49q-48 48 -60 137h38q10 -68 44 -106q39 -44 111 -44q84 0 131 98q43 95 43 243l-1 46h-1q-21 -66 -70 -111q-49 -43 -112 -43
q-88 0 -141 65q-54 63 -54 166q0 105 56 173q56 69 144 69q111 0 165 -94zM442 635q-43 -56 -43 -149q0 -88 42 -142q44 -54 120 -54q68 0 117 57q49 60 49 139q0 83 -40 141q-46 66 -125 66q-77 0 -120 -58zM924 64q10 -10 10 -28q0 -16 -10 -26t-27 -10q-18 0 -27 9
q-10 10 -10 27q0 18 10 27q9 10 27 10t27 -9z" />
    <glyph glyph-name="uni249B" unicode="&#x249b;" 
d="M348 675q42 -51 42 -145q0 -77 -41 -147q-32 -49 -94 -110q-76 -73 -100 -106q-47 -62 -52 -130h283v-37h-322q0 96 51 171q29 43 118 128q56 58 84 101q37 62 37 130q0 75 -30 117q-33 45 -93 45q-62 0 -94 -53q-38 -54 -38 -164h-36q0 121 47 189q43 64 119 64
q78 0 119 -53zM754 632q42 -93 42 -274q0 -182 -42 -275q-45 -97 -132 -97q-88 0 -132 97q-42 93 -42 275q0 181 42 274q44 96 132 96q87 0 132 -96zM484 358q0 -335 138 -335q137 0 137 335q0 333 -137 333q-138 0 -138 -333zM924 64q10 -10 10 -28q0 -16 -10 -26t-27 -10
q-18 0 -27 9q-10 10 -10 27q0 18 10 27q9 10 27 10t27 -9z" />
    <glyph glyph-name="uni249C" unicode="&#x249c;" 
d="M877 827q111 -222 111 -467t-111 -467h-32q115 225 115 467q0 243 -115 467h32zM673 572q45 -49 45 -137v-334h-38v111q-30 -46 -86 -83q-67 -42 -143 -42q-75 0 -122 39q-47 38 -47 105q0 99 83 143q64 35 175 35l139 1v21q0 166 -165 166q-74 0 -119 -33
q-49 -34 -58 -100h-39q12 83 72 127q53 41 146 41q105 0 157 -60zM155 827q-115 -221 -115 -467q0 -244 115 -467h-32q-111 222 -111 467t111 467h32zM679 376l-138 -1q-220 -1 -220 -145q0 -49 37 -79q37 -29 99 -29q84 0 155 59q67 59 67 120v75z" />
    <glyph glyph-name="uni249D" unicode="&#x249d;" 
d="M877 827q111 -222 111 -467t-111 -467h-32q115 225 115 467q0 243 -115 467h32zM292 728h38v-336q54 139 192 139q108 0 171 -84q56 -76 56 -189t-56 -189q-62 -83 -172 -83q-139 0 -192 135v-121h-37v728zM155 827q-115 -221 -115 -467q0 -244 115 -467h-32
q-111 222 -111 467t111 467h32zM377 428q-48 -64 -48 -165v-13q0 -98 48 -161q50 -68 141 -68q93 0 146 70q46 66 46 167q0 104 -48 167q-50 71 -144 71q-91 0 -141 -68z" />
    <glyph glyph-name="uni249E" unicode="&#x249e;" 
d="M877 827q111 -222 111 -467t-111 -467h-32q115 225 115 467q0 243 -115 467h32zM654 587q57 -45 69 -136h-38q-10 72 -56 109q-47 37 -121 37q-89 0 -143 -70q-51 -66 -51 -173q0 -104 48 -167q51 -65 145 -65q154 0 181 161h38q-15 -94 -72 -145q-55 -51 -147 -51
q-113 0 -175 78q-57 72 -57 189q0 119 60 195q62 83 173 83q89 0 146 -45zM155 827q-115 -221 -115 -467q0 -244 115 -467h-32q-111 222 -111 467t111 467h32z" />
    <glyph glyph-name="uni249F" unicode="&#x249f;" 
d="M877 827q111 -222 111 -467t-111 -467h-32q115 225 115 467q0 243 -115 467h32zM671 728h38v-728h-37v121q-54 -135 -192 -135q-111 0 -173 83q-55 74 -55 189t56 189q62 84 171 84q138 0 192 -138v335zM155 827q-115 -221 -115 -467q0 -244 115 -467h-32
q-111 222 -111 467t111 467h32zM338 425q-47 -62 -47 -167q0 -103 46 -167q52 -70 146 -70q90 0 141 68q47 64 47 161v13q0 100 -47 165q-52 68 -141 68q-95 0 -145 -71z" />
    <glyph glyph-name="uni24A0" unicode="&#x24a0;" 
d="M877 827q111 -222 111 -467t-111 -467h-32q115 225 115 467q0 243 -115 467h32zM679 550q51 -70 57 -203h-432q3 -103 57 -164q52 -61 139 -61q77 0 126 43q41 37 59 102h40q-18 -75 -68 -124q-61 -56 -157 -56q-108 0 -171 75q-64 76 -64 198q0 113 62 190q64 82 173 82
q119 0 179 -82zM155 827q-115 -221 -115 -467q0 -244 115 -467h-32q-111 222 -111 467t111 467h32zM363 536q-53 -60 -59 -155h392q-15 216 -196 216q-85 0 -137 -61z" />
    <glyph glyph-name="uni24A1" unicode="&#x24a1;" 
d="M877 827q111 -222 111 -467t-111 -467h-32q115 225 115 467q0 243 -115 467h32zM679 714v-36h-84q-47 0 -67 -23q-20 -21 -20 -75v-63h164v-35h-164v-482h-38v482h-148v35h148v63q0 66 29 98q30 36 94 36h86zM155 827q-115 -221 -115 -467q0 -244 115 -467h-32
q-111 222 -111 467t111 467h32z" />
    <glyph glyph-name="uni24A2" unicode="&#x24a2;" 
d="M877 827q111 -222 111 -467t-111 -467h-32q115 225 115 467q0 243 -115 467h32zM696 595v120h38v-477q0 -252 -227 -252q-99 0 -153 45q-52 42 -65 123h39q11 -62 50 -95q46 -38 129 -38q189 0 189 214v108q-57 -133 -199 -133q-109 0 -173 79q-58 73 -58 180
q0 108 58 179q63 81 173 81q141 0 199 -134zM155 827q-115 -221 -115 -467q0 -244 115 -467h-32q-111 222 -111 467t111 467h32zM354 626q-49 -61 -49 -157q0 -92 48 -155q53 -69 147 -69q92 0 147 67q49 64 49 157q0 94 -49 157q-53 68 -147 68q-93 0 -146 -68z" />
    <glyph glyph-name="uni24A3" unicode="&#x24a3;" 
d="M877 827q111 -222 111 -467t-111 -467h-32q115 225 115 467q0 243 -115 467h32zM309 728h39v-315q27 56 75 87q44 31 101 31q86 0 137 -51q51 -52 51 -147v-333h-38v330q0 79 -43 124q-42 42 -114 42q-69 0 -119 -56t-50 -138v-302h-39v728zM155 827q-115 -221 -115 -467
q0 -244 115 -467h-32q-111 222 -111 467t111 467h32z" />
    <glyph glyph-name="uni24A4" unicode="&#x24a4;" 
d="M877 827q111 -222 111 -467t-111 -467h-32q115 225 115 467q0 243 -115 467h32zM529 681q11 -11 11 -28q0 -15 -11 -28q-12 -12 -29 -12t-29 12q-11 11 -11 28q0 18 11 28q12 12 29 12t29 -12zM481 517h38v-517h-38v517zM155 827q-115 -221 -115 -467q0 -244 115 -467
h-32q-111 222 -111 467t111 467h32z" />
    <glyph glyph-name="uni24A5" unicode="&#x24a5;" 
d="M877 827q111 -222 111 -467t-111 -467h-32q115 225 115 467q0 243 -115 467h32zM539 739q11 -11 11 -28q0 -15 -11 -28q-12 -12 -29 -12t-29 12q-11 11 -11 28q0 18 11 28q12 12 29 12t29 -12zM491 575h38v-519q0 -122 -125 -122h-47v35h46q88 0 88 87v519zM155 827
q-115 -221 -115 -467q0 -244 115 -467h-32q-111 222 -111 467t111 467h32z" />
    <glyph glyph-name="uni24A6" unicode="&#x24a6;" 
d="M877 827q111 -222 111 -467t-111 -467h-32q115 225 115 467q0 243 -115 467h32zM303 728h38v-494l317 283h56l-226 -201l250 -316h-51l-228 290l-118 -106v-184h-38v728zM155 827q-115 -221 -115 -467q0 -244 115 -467h-32q-111 222 -111 467t111 467h32z" />
    <glyph glyph-name="uni24A7" unicode="&#x24a7;" 
d="M877 827q111 -222 111 -467t-111 -467h-32q115 225 115 467q0 243 -115 467h32zM481 728h38v-728h-38v728zM155 827q-115 -221 -115 -467q0 -244 115 -467h-32q-111 222 -111 467t111 467h32z" />
    <glyph glyph-name="uni24A8" unicode="&#x24a8;" 
d="M877 827q111 -222 111 -467t-111 -467h-32q115 225 115 467q0 243 -115 467h32zM508 517q24 54 66 84q40 31 96 31q82 0 128 -51q46 -49 46 -142v-338h-39v335q0 79 -33 118q-36 43 -108 43q-63 0 -103 -46q-41 -45 -41 -116v-334h-39v335q0 161 -139 161q-62 0 -104 -51
q-43 -49 -43 -123v-322h-38v517h38v-88q51 102 152 102q125 0 161 -115zM155 827q-115 -221 -115 -467q0 -244 115 -467h-32q-111 222 -111 467t111 467h32z" />
    <glyph glyph-name="uni24A9" unicode="&#x24a9;" 
d="M877 827q111 -222 111 -467t-111 -467h-32q115 225 115 467q0 243 -115 467h32zM702 418v-317h-39v316q0 180 -158 180q-70 0 -117 -51q-48 -49 -51 -132v-313h-38v517h38v-94q24 49 71 78q45 30 103 30q191 0 191 -214zM155 827q-115 -221 -115 -467q0 -244 115 -467
h-32q-111 222 -111 467t111 467h32z" />
    <glyph glyph-name="uni24AA" unicode="&#x24aa;" 
d="M877 827q111 -222 111 -467t-111 -467h-32q115 225 115 467q0 243 -115 467h32zM680 547q61 -76 61 -188q0 -109 -61 -188q-67 -84 -180 -84q-114 0 -180 84q-61 77 -61 188q0 114 61 188q66 85 180 85q113 0 180 -85zM155 827q-115 -221 -115 -467q0 -244 115 -467h-32
q-111 222 -111 467t111 467h32zM349 524q-51 -66 -51 -165q0 -98 51 -164q56 -73 151 -73q93 0 151 73q51 66 51 164q0 99 -51 165q-57 73 -151 73q-96 0 -151 -73z" />
    <glyph glyph-name="uni24AB" unicode="&#x24ab;" 
d="M877 827q111 -222 111 -467t-111 -467h-32q115 225 115 467q0 243 -115 467h32zM702 644q56 -76 56 -189t-55 -189q-63 -83 -172 -83q-138 0 -192 136v-319h-38v714h37v-121q59 135 192 135q109 0 172 -84zM155 827q-115 -221 -115 -467q0 -244 115 -467h-32
q-111 222 -111 467t111 467h32zM386 622q-47 -62 -47 -164v-12q0 -100 47 -162q51 -66 141 -66q93 0 144 69q48 65 48 168q0 102 -47 166q-52 72 -145 72q-91 0 -141 -71z" />
    <glyph glyph-name="uni24AC" unicode="&#x24ac;" 
d="M877 827q111 -222 111 -467t-111 -467h-32q115 225 115 467q0 243 -115 467h32zM674 593v121h37v-714h-39v319q-54 -136 -191 -136q-112 0 -172 83q-56 74 -56 189q0 114 57 189q62 84 172 84q132 0 192 -135zM155 827q-115 -221 -115 -467q0 -244 115 -467h-32
q-111 222 -111 467t111 467h32zM340 621q-47 -62 -47 -166q0 -105 47 -168q51 -69 145 -69q89 0 140 66q48 63 48 162v12q0 100 -47 164q-50 71 -142 71q-93 0 -144 -72z" />
    <glyph glyph-name="uni24AD" unicode="&#x24ad;" 
d="M877 827q111 -222 111 -467t-111 -467h-32q115 225 115 467q0 243 -115 467h32zM690 622v-41q-42 12 -82 12q-78 0 -124 -73q-40 -62 -40 -146v-273h-39v517h39v-108q19 50 60 83q45 39 107 39q50 0 79 -10zM155 827q-115 -221 -115 -467q0 -244 115 -467h-32
q-111 222 -111 467t111 467h32z" />
    <glyph glyph-name="uni24AE" unicode="&#x24ae;" 
d="M877 827q111 -222 111 -467t-111 -467h-32q115 225 115 467q0 243 -115 467h32zM692 475h-38q-10 58 -46 88q-41 34 -116 34q-63 0 -102 -27q-42 -27 -42 -70q0 -45 49 -72q32 -17 111 -38q96 -24 135 -47q63 -36 63 -102q0 -154 -201 -154q-193 0 -211 174h39
q9 -75 52 -108q42 -31 119 -31q162 0 162 118q0 51 -53 78q-27 15 -120 39t-126 46q-58 34 -58 96q0 61 55 97q51 36 128 36q176 0 200 -157zM155 827q-115 -221 -115 -467q0 -244 115 -467h-32q-111 222 -111 467t111 467h32z" />
    <glyph glyph-name="uni24AF" unicode="&#x24af;" 
d="M877 827q111 -222 111 -467t-111 -467h-32q115 225 115 467q0 243 -115 467h32zM155 827q-115 -221 -115 -467q0 -244 115 -467h-32q-111 222 -111 467t111 467h32zM507 728v-167h142v-35h-142v-373q0 -41 13 -57q14 -17 52 -17h65v-35h-68q-57 0 -81 29q-20 26 -20 80
v373h-116v35h116v150z" />
    <glyph glyph-name="uni24B0" unicode="&#x24b0;" 
d="M877 827q111 -222 111 -467t-111 -467h-32q115 225 115 467q0 243 -115 467h32zM298 618h39v-317q0 -88 38 -132q38 -47 120 -47q70 0 118 51t51 132v313h38v-517h-38v96q-59 -110 -175 -110q-191 0 -191 213v318zM155 827q-115 -221 -115 -467q0 -244 115 -467h-32
q-111 222 -111 467t111 467h32z" />
    <glyph glyph-name="uni24B1" unicode="&#x24b1;" 
d="M877 827q111 -222 111 -467t-111 -467h-32q115 225 115 467q0 243 -115 467h32zM279 618h43l178 -467l178 467h43l-200 -517h-42zM155 827q-115 -221 -115 -467q0 -244 115 -467h-32q-111 222 -111 467t111 467h32z" />
    <glyph glyph-name="uni24B2" unicode="&#x24b2;" 
d="M877 827q111 -222 111 -467t-111 -467h-32q115 225 115 467q0 243 -115 467h32zM141 618h43l155 -463l142 463h39l142 -463l155 463h43l-179 -517h-38l-142 463l-143 -463h-38zM155 827q-115 -221 -115 -467q0 -244 115 -467h-32q-111 222 -111 467t111 467h32z" />
    <glyph glyph-name="uni24B3" unicode="&#x24b3;" 
d="M877 827q111 -222 111 -467t-111 -467h-32q115 225 115 467q0 243 -115 467h32zM289 618h47l164 -215l164 215h48l-188 -245l209 -272h-48l-185 243l-185 -243h-48l210 272zM155 827q-115 -221 -115 -467q0 -244 115 -467h-32q-111 222 -111 467t111 467h32z" />
    <glyph glyph-name="uni24B4" unicode="&#x24b4;" 
d="M877 827q111 -222 111 -467t-111 -467h-32q115 225 115 467q0 243 -115 467h32zM276 714h42l182 -456l181 456h43l-286 -714h-43l86 210zM155 827q-115 -221 -115 -467q0 -244 115 -467h-32q-111 222 -111 467t111 467h32z" />
    <glyph glyph-name="uni24B5" unicode="&#x24b5;" 
d="M877 827q111 -222 111 -467t-111 -467h-32q115 225 115 467q0 243 -115 467h32zM303 618h389v-35l-351 -447h367v-35h-415v35l352 447h-342v35zM155 827q-115 -221 -115 -467q0 -244 115 -467h-32q-111 222 -111 467t111 467h32z" />
    <glyph glyph-name="uni24B6" unicode="&#x24b6;" 
d="M845 705q143 -143 143 -345q0 -200 -143 -345q-145 -143 -345 -143q-202 0 -345 143t-143 345q0 203 143 345q142 143 345 143q202 0 345 -143zM173 687q-136 -135 -136 -327q0 -191 136 -327t327 -136q189 0 327 136q136 138 136 327q0 191 -136 327t-327 136
q-192 0 -327 -136zM476 693h48l257 -671h-43l-80 212h-316l-80 -212h-43zM356 270h288l-141 376h-5z" />
    <glyph glyph-name="uni24B7" unicode="&#x24b7;" 
d="M845 705q143 -143 143 -345q0 -200 -143 -345q-145 -143 -345 -143q-202 0 -345 143t-143 345q0 203 143 345q142 143 345 143q202 0 345 -143zM173 687q-136 -135 -136 -327q0 -191 136 -327t327 -136q189 0 327 136q136 138 136 327q0 191 -136 327t-327 136
q-192 0 -327 -136zM294 693h292q87 0 139 -43q56 -45 56 -126q0 -56 -34 -99q-35 -39 -85 -54q64 -10 105 -56q41 -44 41 -109q0 -93 -70 -143q-61 -41 -158 -41h-286v671zM333 657v-271h247q72 0 116 35q46 37 46 101q0 67 -45 103q-44 32 -117 32h-247zM333 352v-294h252
q80 0 129 33q55 40 55 115q0 72 -56 111q-48 35 -131 35h-249z" />
    <glyph glyph-name="uni24B8" unicode="&#x24b8;" 
d="M845 705q143 -143 143 -345q0 -200 -143 -345q-145 -143 -345 -143q-202 0 -345 143t-143 345q0 203 143 345q142 143 345 143q202 0 345 -143zM173 687q-136 -135 -136 -327q0 -191 136 -327t327 -136q189 0 327 136q136 138 136 327q0 191 -136 327t-327 136
q-192 0 -327 -136zM698 649q80 -61 92 -158h-36q-12 81 -82 132q-65 47 -153 47q-131 0 -207 -94q-72 -87 -72 -223q0 -135 70 -218q74 -90 200 -90q91 0 160 51q72 55 93 155h37q-21 -117 -106 -183q-79 -59 -184 -59q-145 0 -229 102q-80 95 -80 242q0 149 81 246
q86 107 237 107q101 0 179 -57z" />
    <glyph glyph-name="uni24B9" unicode="&#x24b9;" 
d="M845 705q143 -143 143 -345q0 -200 -143 -345q-145 -143 -345 -143q-202 0 -345 143t-143 345q0 203 143 345q142 143 345 143q202 0 345 -143zM173 687q-136 -135 -136 -327q0 -191 136 -327t327 -136q189 0 327 136q136 138 136 327q0 191 -136 327t-327 136
q-192 0 -327 -136zM289 693h238q155 0 232 -95q70 -87 70 -241q0 -151 -81 -241q-86 -94 -239 -94h-220v671zM328 657v-599h178q137 0 212 81q72 80 72 218q0 143 -59 217q-65 83 -208 83h-195z" />
    </font>
</defs>
</svg>
